.
Авторизация | Регистрация
» » Неудовлетворенное сексуальное напряжение / Tension Sexual No Resuelta (2010) DVDRip-AVC | Лицензия торрент скачать бесплатно




    Неудовлетворенное сексуальное напряжение / Tension Sexual No Resuelta (2010) DVDRip-AVC | Лицензия торрент скачать бесплатно

    Опубликовал: Админ | Дата: 27-02-2015, 11:10 | Просмотров: 210



    Детально о кино
    Русское название: Неудовлетворенное сексуальное напряжение
    Русское название в мировом прокате: Tension Sexual No Resuelta
    Создали в: 2010
    Категория жанра: Комедия, эротика
    Главный режиссер: Мигель Анхель Ламата
    Актеры: Норма Руис, Пилар Рубио, Саломе Хименес, Мигель Анхель Муньос, Феле Мартинес, Амайя Саламанка, Адам Езерски, Сэмюэл Миро, Хоакин Рейес, Майте Навалес, Жезуш Перез Тейра, Бесо Негро, Тобо Гандуль, Гильермо Мата, Кути Верикад, Дун Гандуль, Хосе Мануэль Тафайя, Пакийо Муньос, Оскар Алгарабель Oscar Algarabel, Дэвид Лозаньо, Аманда Маруган, Яиза Баутиста, Аттила Бано, Пепе Наварро, Сантьяго Сегура

    Сюжет фильма:
    В знойной Испании красавицы и красавцы увлеченно разбираются в хитросплетениях своей сексуальной жизни — кто, с кем, когда и к чему приводят мимолетные увлечения.



    Снималось в: Испания
    Киностудия: Amiguetes Entertainment S.L., Bowfinger International Pictures…
    Время просмотра: 01:29:23
    Перевод текста: Профессиональный (дублированный) Лицензия

    Файл
    Кодек для видео: h.264
    Качество фильма: DVDRip-AVC
    Информация о видео: AVC, 1024 x 436, ~1791 kbps
    Информация о звуке #1: Русский: AC-3, 2 ch, 192 kbps
    Информация о звуке #2: Испанский: AC-3, 6 ch, 448 kbps
    Субтитры: Русский

    ВНИМАНИЕ!!! Запрещен к просмотру, лицам младше 18 лет!

    Семпл

    Скриншоты для ознакомления
    MI
    Общее
    Уникальный идентификатор : 168348648403719580577546155723716462494 (0x7EA6C532C2870C1E037BA147C20E879E)
    Полное имя : G:Неудовлетворенное сексуальное напряжение Tension Sexual No Resuelta 2010 ДБ, СТ DVDRip (AVC)Tension.sexual.no.resuelta.2010.DVDRip.x264..mkv
    Формат : Matroska
    Версия формата : Version 2
    Размер файла : 1,55 Гбайт
    Продолжительность : 1 ч. 29 м.
    Режим общего битрейта : Переменный
    Общий поток : 2480 Кбит/сек
    Программа кодирования : Lavf51.12.1
    Библиотека кодирования : Lavf51.12.1

    Видео
    Идентификатор : 1
    Формат : AVC
    Формат/Информация : Advanced Video Codec
    Профиль формата : Baseline@L3.1
    Параметр CABAC формата : Нет
    Параметр ReFrames формата : 1 кадр
    Параметр GOP формата : M=1, N=12
    Идентификатор кодека : V_MPEG4/ISO/AVC
    Продолжительность : 1 ч. 29 м.
    Вид битрейта : Переменный
    Битрейт : 1791 Кбит/сек
    Максимальный битрейт : 2640 Кбит/сек
    Ширина : 1024 пикселя
    Высота : 436 пикселей
    Соотношение сторон : 2,35:1
    Соотношение сторон в оригинале : 2,35:1
    Режим частоты кадров : Постоянный
    Частота кадров : 25,000 кадров/сек
    Частота кадров в оригинале : 24,000 кадра/сек
    Цветовое пространство : YUV
    Субдискретизация насыщенности : 4:2:0
    Битовая глубина : 8 бит
    Тип развёртки : Прогрессивная
    Бит/(Пиксели*Кадры) : 0.160
    Размер потока : 1,12 Гбайт (72%)
    Язык : Spanish
    Default : Да
    Forced : Нет

    Аудио #1
    Идентификатор : 2
    Формат : AC-3
    Формат/Информация : Audio Coding 3
    Расширение режима : CM (complete main)
    Параметр Endianness формата : Big
    Идентификатор кодека : A_AC3
    Продолжительность : 1 ч. 29 м.
    Вид битрейта : Постоянный
    Битрейт : 192 Кбит/сек
    Каналы : 2 канала
    Расположение каналов : Front: L R
    Частота : 48,0 КГц
    Битовая глубина : 16 бит
    Метод сжатия : С потерями
    Размер потока : 123 Мбайт (8%)
    Язык : Russian
    Default : Да
    Forced : Нет

    Аудио #2
    Идентификатор : 4
    Формат : AC-3
    Формат/Информация : Audio Coding 3
    Расширение режима : CM (complete main)
    Параметр Endianness формата : Big
    Идентификатор кодека : A_AC3
    Продолжительность : 1 ч. 29 м.
    Вид битрейта : Постоянный
    Битрейт : 448 Кбит/сек
    Каналы : 6 каналов
    Расположение каналов : Front: L C R, Side: L R, LFE
    Частота : 48,0 КГц
    Битовая глубина : 16 бит
    Метод сжатия : С потерями
    Размер потока : 287 Мбайт (18%)
    Язык : Spanish
    Default : Да
    Forced : Нет

    Текст
    Идентификатор : 3
    Формат : UTF-8
    Идентификатор кодека : S_TEXT/UTF8
    Идентификатор кодека/Информация : UTF-8 Plain Text
    Язык : Russian
    Default : Да
    Forced : Нет /spoiler

    Размер скачиваемого торрента: 1.55 GB (1663278543 Bytes)

    Неудовлетворенное сексуальное напряжение / Tension Sexual No Resuelta (2010) DVDRip-AVC | Лицензия торрент скачать бесплатно
    загрузка...
    Рейтинг →
     (голосов: 1, оценка 4/5, голосовать можно 1 раз )

    Другие торренты по теме:



      Комментарии (0):

      Информация

      Информация

        Посетители, находящиеся в группе Гости, не могут оставлять комментарии в данной новости.

        ↓ Меню



        ↓ Опрос

        А Вы добавили сайт в закладки?
        Да
        Не


        Top 10 за неделю (Фильмы)