.
Авторизация | Регистрация
Хочешь лучшие торренты? Добавь свой email!
Добавить
» » То, что мы потеряли / Things We Lost in the Fire (2007) BDRip 1080p торрент скачать бесплатно




    То, что мы потеряли / Things We Lost in the Fire (2007) BDRip 1080p торрент скачать бесплатно

    Опубликовал: Админ | Дата: 27-02-2015, 11:10 | Просмотров: 221



    Детально о кино
    Русское название: То, что мы потеряли
    Русское название в мировом прокате: Things We Lost in the Fire
    Создали в: 2007
    Категория жанра: Драма
    Главный режиссер: Сюзанна Бир
    Актеры: Холли Берри, Бенисио Дель Торо, Дэвид Духовны, Алексис Ллевелин, Мика Берри, Джон Кэрролл Линч, Элисон Ломан, Омар Бенсон Миллер, Паула Ньюсом, Сара Дубровский, Морин Томас, В. Дж. Фостер, Кэролайн Филд, Тодд Чарльз Мошер, Лайам Джеймс, Куинн Лорд, Алехандро Чаварриа

    Сюжет фильма:
    Вдова, недавно потерявшая мужа, приглашает его проблемного лучшего друга Джерри пожить вместе с ней и двумя ее детьми. Джерри помогает семье справиться с их утратой, потихоньку приводя и свою жизнь в порядок.



    Снималось в: США, Великобритания
    Время просмотра: 01:58:09
    Перевод текста: Профессиональный (двухголосый закадровый) НТВ

    Файл
    Кодек для видео: ч264
    Качество фильма: BDRip 1080p
    Информация о видео: 1920x816 (2,35:1) / 18400 kbps / 23,976 fps / 0.491 bit/pixel / High@L4.1
    Информация о звуке:
    Аудио 1: Russian / AC3 / 48 kHz / 2 Ch / 192 kbps / 16 bit / DVO
    Аудио 2: English / DTS / 48 kHz / 5.1 Ch / 1510 kbps / 24 bit / Original
    Субтитры: русские, английские
    MI
    Общее
    Уникальный идентификатор : 252198030447990207533591053840245230527 (0xBDBB92E981ABAA17A7A1079DCB868BBF)
    Полное имя : C:Things We Lost in the Fire.2007.BDRip.1080p.mkv
    Формат : Matroska
    Версия формата : Version 2
    Размер файла : 16,6 Гбайт
    Продолжительность : 1 ч. 58 м.
    Общий поток : 20,1 Мбит/сек
    Дата кодирования : UTC 2012-10-03 15:39:58
    Программа кодирования : mkvmerge v5.8.0 (;No Sleep / Pillow;) built on Sep 2 2012 15:37:04
    Библиотека кодирования : libebml v1.2.3 libmatroska v1.3.0

    Видео
    Идентификатор : 1
    Формат : AVC
    Формат/Информация : Advanced Video Codec
    Профиль формата : High@L4.1
    Параметр CABAC формата : Да
    Параметр ReFrames формата : 5 кадров
    Идентификатор кодека : V_MPEG4/ISO/AVC
    Продолжительность : 1 ч. 58 м.
    Битрейт : 18,4 Мбит/сек
    Ширина : 1920 пикселей
    Высота : 816 пикселей
    Соотношение сторон : 2,35:1
    Режим частоты кадров : Постоянный
    Частота кадров : 23,976 кадра/сек
    Цветовое пространство : YUV
    Субдискретизация насыщенности : 4:2:0
    Битовая глубина : 8 бит
    Тип развёртки : Прогрессивная
    Бит/(Пиксели*Кадры) : 0.491
    Размер потока : 14,9 Гбайт (90%)
    Библиотека кодирования : x264 core 128 r2216 198a7ea
    Настройки программы : cabac=1 / ref=5 / deblock=1:-3:-3 / analyse=0x3:0x113 / me=umh / subme=11 / psy=1 / psy_rd=1.08:0.15 / mixed_ref=1 / me_range=56 / chroma_me=1 / trellis=2 / 8x8dct=1 / cqm=0 / deadzone=21,11 / fast_pskip=0 / chroma_qp_offset=-3 / threads=12 / lookahead_threads=2 / sliced_threads=0 / slices=4 / nr=0 / decimate=1 / interlaced=0 / bluray_compat=0 / constrained_intra=0 / bframes=7 / b_pyramid=2 / b_adapt=2 / b_bias=0 / direct=3 / weightb=1 / open_gop=0 / weightp=2 / keyint=240 / keyint_min=23 / scenecut=40 / intra_refresh=0 / rc_lookahead=240 / rc=2pass / mbtree=1 / bitrate=18432 / ratetol=1.0 / qcomp=0.60 / qpmin=0 / qpmax=69 / qpstep=4 / cplxblur=20.0 / qblur=0.5 / vbv_maxrate=50000 / vbv_bufsize=40000 / nal_hrd=none / ip_ratio=1.40 / aq=1:1.00
    Язык : English
    Default : Да
    Forced : Нет
    Основные цвета : BT.709
    Характеристики трансфера : BT.709
    Коэффициенты матрицы : BT.709

    Аудио #1
    Идентификатор : 2
    Формат : AC-3
    Формат/Информация : Audio Coding 3
    Расширение режима : CM (complete main)
    Параметр Endianness формата : Big
    Идентификатор кодека : A_AC3
    Продолжительность : 1 ч. 58 м.
    Вид битрейта : Постоянный
    Битрейт : 192 Кбит/сек
    Каналы : 2 канала
    Расположение каналов : Front: L R
    Частота : 48,0 КГц
    Битовая глубина : 16 бит
    Метод сжатия : С потерями
    Размер потока : 162 Мбайт (1%)
    Заголовок : DVO НТВ
    Язык : Russian
    Default : Да
    Forced : Нет

    Аудио #2
    Идентификатор : 3
    Формат : DTS
    Формат/Информация : Digital Theater Systems
    Идентификатор кодека : A_DTS
    Продолжительность : 1 ч. 58 м.
    Вид битрейта : Постоянный
    Битрейт : 1510 Кбит/сек
    Каналы : 6 каналов
    Расположение каналов : Front: L C R, Side: L R, LFE
    Частота : 48,0 КГц
    Битовая глубина : 24 бит
    Метод сжатия : С потерями
    Размер потока : 1,25 Гбайт (7%)
    Заголовок : Original
    Язык : English
    Default : Нет
    Forced : Нет

    Текст #1
    Идентификатор : 4
    Формат : UTF-8
    Идентификатор кодека : S_TEXT/UTF8
    Идентификатор кодека/Информация : UTF-8 Plain Text
    Заголовок : RUS
    Язык : Russian
    Default : Нет
    Forced : Нет

    Текст #2
    Идентификатор : 5
    Формат : UTF-8
    Идентификатор кодека : S_TEXT/UTF8
    Идентификатор кодека/Информация : UTF-8 Plain Text
    Заголовок : Original
    Язык : English
    Default : Нет
    Forced : Нет

    Меню
    00:00:00.000 : en:CHAPTER01
    00:07:17.896 : en:CHAPTER02
    00:14:27.158 : en:CHAPTER03
    00:21:33.000 : en:CHAPTER04
    00:28:19.573 : en:CHAPTER05
    00:37:03.471 : en:CHAPTER06
    00:44:17.780 : en:CHAPTER07
    00:52:10.336 : en:CHAPTER08
    00:58:35.846 : en:CHAPTER09
    01:07:19.953 : en:CHAPTER10
    01:14:43.938 : en:CHAPTER11
    01:20:52.431 : en:CHAPTER12
    01:27:39.671 : en:CHAPTER13
    01:33:28.520 : en:CHAPTER14
    01:39:54.947 : en:CHAPTER15
    01:45:29.281 : en:CHAPTER16
    01:51:53.707 : en:CHAPTER17

    Скриншоты для ознакомления

    Размер скачиваемого торрента: 16.61 GB (17839950694 Bytes)

    То, что мы потеряли / Things We Lost in the Fire (2007) BDRip 1080p торрент скачать бесплатно
    загрузка...
    Рейтинг →
     (голосов: 1, оценка 3/5, голосовать можно 1 раз )

    Другие торренты по теме:

  • VA - Хиты то, что надо!!! Зимний выпуск (2013) MP3
  • Сборник - Зимние хиты то, что надо (2013) MP3
  • Занин С. - Как преодолеть лень, или Как научиться делать то, что нужно делать (2012) PDF
  • VA - Новый РусРок. То, что не купишь в магазине (2009-2013) MP3
  • Хьёка: То, что нужно каждому / Hyouka: Motsubeki Mono wa (2012) BDRip
  • Морская история: То, что в твоих силах / Umi Monogatari: Anata ga Ite Kureta Koto (2009) HDTVRip | Persona99
  • Морская история: То, что в твоих силах / Umi Monogatari: Anata ga Ite Kureta Koto TV (2009) HDTVRip | Persona99
  • Грехи отца / То, что не сказано / The Unsaid (2001) DVDRip от Scarabey | A


    • Комментарии (0):

      Информация

      Информация

        Посетители, находящиеся в группе Гости, не могут оставлять комментарии в данной новости.

        ↓ Меню



        ↓ Опрос

        А Вы добавили сайт в закладки?
        Да
        Не


        Top 10 за месяц (Фильмы)