.
Авторизация | Регистрация
Хочешь лучшие торренты? Добавь свой email!
Добавить
» » Стена / Die Wand / The Wall (2012) BDRip-AVC | A, L1 торрент скачать бесплатно




    Стена / Die Wand / The Wall (2012) BDRip-AVC | A, L1 торрент скачать бесплатно

    Опубликовал: Админ | Дата: 27-02-2015, 11:10 | Просмотров: 201



    Детально о кино
    Русское название: Стена
    Русское название в мировом прокате: Die Wand / The Wall
    Создали в: 2012
    Категория жанра: фэнтези, драма
    Главный режиссер: Юлиан Пельслер
    Актеры: Мартина Гедек, Вольфганг М. Бауэр, Ульрике Баймпольд, Карлхайнц Хакль, Ганс-Михаэль Реберг

    Сюжет фильма:
    В доме, затерянном в горах, женщина с грубо остриженными волосами, синевой вокруг глаз и скулами, обострившимися от месяцев скудной жизни и тяжелого физического труда, ведёт дневник — на оборотной стороне истлевших, потерявших смысл календарей, под надсадное карканье ноябрьских ворон. Не ради удовольствия от письма — чтобы выжить и спастись от безумия. С ней случилось невероятное — она приехала в этот горный дом с друзьями, пожилой парой, в солнечный майский день, чтобы на следующее утро, обеспокоившись исчезновением ушедших на прогулку стариков, обнаружить, что покинуть вершину горы уже невозможно: весь прочий мир отделен от неё невидимой, но непроницаемой стеной. Так женщина осталась одна, в компании домашнего пса, приблудной коровы и пушистых котят, таких неуместных на лоне дикой природы. Она осознала, что недостаточно юна и безрассудна для самоубийства, значит, придётся выживать, чего бы это ни стоило…



    Снималось в: Австрия, Германия
    Киностудия: Bayerischer Rundfunk (BR), Starhaus Filmproduktion…
    Время просмотра: 01:47:55
    Перевод текста: Авторский (одноголосый) А.Дольский, Любительский (одноголосый) ХиХиДок

    Файл
    Кодек для видео: h.264
    Качество фильма: BDRip-AVC
    Информация о видео: AVC, 1024 x 436, ~1803 kbps
    Информация о звуке #1: Русский (А.Дольский): AC-3, 2 ch, 448 kbps
    Информация о звуке #2: Русский (ХиХиДок): AC-3, 6 ch, 448 kbps
    Информация о звуке #3: Немецкий: AC-3, 6 ch, 448 kbps
    Субтитры: Русские (zukaten)

    Семпл

    Скриншоты для ознакомления
    MI
    Общее
    Уникальный идентификатор : 168348648403719580577546155723716462494 (0x7EA6C532C2870C1E037BA147C20E879E)
    Полное имя : G:Стена Die Wand The Wall (2012) BDRip-AVC A, L1The.Wall.2012.BDRip-AVC..mkv
    Формат : Matroska
    Версия формата : Version 2
    Размер файла : 2,42 Гбайт
    Продолжительность : 1 ч. 47 м.
    Режим общего битрейта : Переменный
    Общий поток : 3211 Кбит/сек
    Программа кодирования : Lavf51.12.1
    Библиотека кодирования : Lavf51.12.1

    Видео
    Идентификатор : 1
    Формат : AVC
    Формат/Информация : Advanced Video Codec
    Профиль формата : Baseline@L3.1
    Параметр CABAC формата : Нет
    Параметр ReFrames формата : 1 кадр
    Параметр GOP формата : M=1, N=12
    Идентификатор кодека : V_MPEG4/ISO/AVC
    Продолжительность : 1 ч. 47 м.
    Вид битрейта : Переменный
    Битрейт : 1803 Кбит/сек
    Максимальный битрейт : 2790 Кбит/сек
    Ширина : 1024 пикселя
    Высота : 436 пикселей
    Соотношение сторон : 2,35:1
    Соотношение сторон в оригинале : 2,35:1
    Режим частоты кадров : Постоянный
    Частота кадров : 23,976 кадра/сек
    Частота кадров в оригинале : 24,000 кадра/сек
    Цветовое пространство : YUV
    Субдискретизация насыщенности : 4:2:0
    Битовая глубина : 8 бит
    Тип развёртки : Прогрессивная
    Бит/(Пиксели*Кадры) : 0.168
    Размер потока : 1,36 Гбайт (56%)
    Язык : English
    Default : Да
    Forced : Нет

    Аудио #1
    Идентификатор : 2
    Формат : AC-3
    Формат/Информация : Audio Coding 3
    Расширение режима : CM (complete main)
    Параметр Endianness формата : Big
    Идентификатор кодека : A_AC3
    Продолжительность : 1 ч. 47 м.
    Вид битрейта : Постоянный
    Битрейт : 448 Кбит/сек
    Каналы : 2 канала
    Расположение каналов : Front: L R
    Частота : 48,0 КГц
    Битовая глубина : 16 бит
    Метод сжатия : С потерями
    Размер потока : 346 Мбайт (14%)
    Язык : Russian
    Default : Да
    Forced : Нет

    Аудио #2
    Идентификатор : 4
    Формат : AC-3
    Формат/Информация : Audio Coding 3
    Расширение режима : CM (complete main)
    Параметр Endianness формата : Big
    Идентификатор кодека : A_AC3
    Продолжительность : 1 ч. 47 м.
    Вид битрейта : Постоянный
    Битрейт : 448 Кбит/сек
    Каналы : 6 каналов
    Расположение каналов : Front: L C R, Side: L R, LFE
    Частота : 48,0 КГц
    Битовая глубина : 16 бит
    Метод сжатия : С потерями
    Размер потока : 346 Мбайт (14%)
    Язык : Russian
    Default : Да
    Forced : Нет

    Аудио #3
    Идентификатор : 5
    Формат : AC-3
    Формат/Информация : Audio Coding 3
    Расширение режима : CM (complete main)
    Параметр Endianness формата : Big
    Идентификатор кодека : A_AC3
    Продолжительность : 1 ч. 47 м.
    Вид битрейта : Постоянный
    Битрейт : 448 Кбит/сек
    Каналы : 6 каналов
    Расположение каналов : Front: L C R, Side: L R, LFE
    Частота : 48,0 КГц
    Битовая глубина : 16 бит
    Метод сжатия : С потерями
    Размер потока : 346 Мбайт (14%)
    Язык : German
    Default : Да
    Forced : Нет

    Текст
    Идентификатор : 3
    Формат : UTF-8
    Идентификатор кодека : S_TEXT/UTF8
    Идентификатор кодека/Информация : UTF-8 Plain Text
    Язык : Russian
    Default : Да
    Forced : Нет

    Размер скачиваемого торрента: 2.42 GB (2598896195 Bytes)

    Стена / Die Wand / The Wall (2012) BDRip-AVC | A, L1 торрент скачать бесплатно
    загрузка...
    Рейтинг →
     (голосов: 1, оценка 4/5, голосовать можно 1 раз )

    Другие торренты по теме:

  • Великая Стена / The Great Wall (2016) BDRip 720p | Дополнительные материалы | Sub
  • Великая стена / The Great Wall (2016) BDRip-HEVC 720p от HEVC CLUB | Лицензия
  • Великая стена / The Great Wall (2016) DVD9 | Custom
  • Северная стена / The North Face / Nordwand (2008) BDRip 1080p | L1
  • Огненная стена / Firewall (2006) BDRip 1080p | D, P2
  • Северная стена / The North Face / Nordwand (2008) BDRip 720p | SaTI
  • Северная стена / The North Face / Nordwand (2008) HDRip | SaTI
  • Северная стена / The North Face / Nordwand (2008) BDRip 1080p | SaTI скачать через торрент бесплатно


    • Комментарии (0):

      Информация

      Информация

        Посетители, находящиеся в группе Гости, не могут оставлять комментарии в данной новости.

        ↓ Меню



        ↓ Опрос

        А Вы добавили сайт в закладки?
        Да
        Не


        Top 10 за месяц (Фильмы)