.
Авторизация | Регистрация
» » Молода и прекрасна / Jeune Jolie / Young Beautiful (2013) BDRemux 1080p от GORESEWAGE торрент скачать бесплатно




    Молода и прекрасна / Jeune Jolie / Young Beautiful (2013) BDRemux 1080p от GORESEWAGE торрент скачать бесплатно

    Опубликовал: Админ | Дата: 27-02-2015, 11:10 | Просмотров: 216



    Молода и прекрасна / Jeune Jolie / Young Beautiful

    Создали в: 2013
    Снималось в: Франция
    Категория жанра: драма, мелодрама
    Время просмотра: 01:33:20
    Перевод текста: Профессиональный (дублированный) DVD R5
    Оригинальная аудиодорожка: French
    Субтитры: French (Forced), English (Full)
    Киностудия: Mandarin Films (as Mandarin Cin?ma), Mars Distribution (co-production) (as Mars Films), France 2 Cin?ma (co-production), FOZ (co-production), Canal (participation), Cin? (participation), France T?l?visions (participation), La Banque Postale Image 6 (in association with), Cofimage 24 (in association with), Sofica Manon 3 (in association with), Cofinova 9 (in association with), Palatine ?toile 10 (in association with), R?gion Ile-de-France (support)

    Главный режиссёр: Франсуа Озон / Fran?ois Ozon

    Актеры: Марина Вакт, Жеральдин Пайя, Фредерик Пьеро, Шарлотта Рэмплинг, Фантен Рава, Йохан Лейзен, Натали Ришар, Джедже Апали, Люка Призор, Лорен Дельбек и др.

    Сюжет: Семнадцатилетняя Изабель погружается в бездонный мир любви, в поиски себя. Не столько из-за денег, сколько ради удовольствия, она встречается с немолодыми клиентами в гостиничных номерах. Близкие Изабель не подозревают, чем одержима умная и тонкая девушка. Но однажды умирает один из её постоянных клиентов…



    Sample

    Качество фильма: BDRemux 1080p (Jeune Jolie 2013 1080p FRA Blu-ray AVC DTS-HD MA 5.1-STEAL)
    Контейнер: MKV
    Информация о видео кодек: MPEG-4 AVC Video
    Информация о звуке кодек: DTS-HD MA / DTS / AC3
    Информация о видео: MPEG-4 AVC Video / 31937 kbps / 1920x1080p / 23,976 fps / 16:9 / High Profile 4.1
    Информация о звуке 1: Russian / AC3 / 5.1 / 48 kHz / 384 kbps / 16-bit | Dub DVD R5
    Информация о звуке 2: French / DTS-HD MA / 5.1 / 48 kHz / 1719 kbps / 16-bit (DTS Core: 5.1 / 48 kHz / 1536 kbps / 16-bit) | Original
    Информация о звуке 3: French / DTS / 2.0 / 48 kHz / 768 kbps / 16-bit | Descriрtion
    Навигация по главам: да

    Screens

    MediaInfo
    C:/GORESEWAGE/Jeune Jolie (Young Beautiful) 2013 BDRemux 1080p GORESEWAGE.mkv
    General
    Unique ID : 178845067136356424029068695181406999858 (0x868C4E98E352AA79AD320839E0DF9532)
    Complete name : C:/GORESEWAGE/Jeune Jolie (Young Beautiful) 2013 BDRemux 1080p GORESEWAGE.mkv
    Format : Matroska
    Format version : Version 4 / Version 2
    File size : 22.7 GiB
    Duration : 1h 33mn
    Overall bit rate mode : Variable
    Overall bit rate : 34.8 Mbps
    Movie name : Jeune Jolie (Young Beautiful) 2013 BDRemux 1080p GORESEWAGE
    Encoded date : UTC 2014-03-04 21:49:55
    Writing application : mkvmerge v6.8.0 (;Theme for Great Cities;) 64bit built on Mar 2 2014 21:34:26
    Writing library : libebml v1.3.0 libmatroska v1.4.1
    Attachment : Yes
    Video #1
    ID : 1
    Format : AVC
    Format/Info : Advanced Video Codec
    Format profile : High@L4.1
    Format settings, CABAC : Yes
    Format settings, ReFrames : 2 frames
    Codec ID : V_MPEG4/ISO/AVC
    Duration : 1h 33mn
    Bit rate mode : Variable
    Width : 1 920 pixels
    Height : 1 080 pixels
    Display aspect ratio : 16:9
    Frame rate mode : Constant
    Frame rate : 23.976 fps
    Color space : YUV
    Chroma subsampling : 4:2:0
    Bit depth : 8 bits
    Scan type : Progressive
    Title : Jeune Jolie (Young Beautiful) 2013 BDRemux 1080p GORESEWAGE
    Language : French
    Default : Yes
    Forced : No
    Audio #2
    ID : 2
    Format : AC-3
    Format/Info : Audio Coding 3
    Mode extension : CM (complete main)
    Format settings, Endianness : Big
    Codec ID : A_AC3
    Duration : 1h 33mn
    Bit rate mode : Constant
    Bit rate : 384 Kbps
    Channel count : 6 channels
    Channel positions : Front: L C R, Side: L R, LFE
    Sampling rate : 48.0 KHz
    Bit depth : 16 bits
    Compression mode : Lossy
    Stream size : 256 MiB (1%)
    Title : Dub DVD R5
    Language : Russian
    Default : Yes
    Forced : No
    Audio #3
    ID : 3
    Format : DTS
    Format/Info : Digital Theater Systems
    Format profile : MA / Core
    Mode : 16
    Format settings, Endianness : Big
    Codec ID : A_DTS
    Duration : 1h 33mn
    Bit rate mode : Variable
    Bit rate : Unknown / 1 509 Kbps
    Channel count : 6 channels
    Channel positions : Front: L C R, Side: L R, LFE
    Sampling rate : 48.0 KHz
    Bit depth : 16 bits
    Compression mode : Lossless / Lossy
    Title : Original
    Language : French
    Default : No
    Forced : No
    Audio #4
    ID : 4
    Format : DTS
    Format/Info : Digital Theater Systems
    Mode : 16
    Format settings, Endianness : Big
    Codec ID : A_DTS
    Duration : 1h 33mn
    Bit rate mode : Constant
    Bit rate : 768 Kbps
    Channel count : 2 channels
    Channel positions : Front: L R
    Sampling rate : 48.0 KHz
    Bit depth : 16 bits
    Compression mode : Lossy
    Stream size : 513 MiB (2%)
    Title : Descriрtion
    Language : French
    Default : No
    Forced : No
    Text #5
    ID : 5
    Format : UTF-8
    Codec ID : S_TEXT/UTF8
    Codec ID/Info : UTF-8 Plain Text
    Title : Forced
    Language : French
    Default : No
    Forced : No
    Text #6
    ID : 6
    Format : UTF-8
    Codec ID : S_TEXT/UTF8
    Codec ID/Info : UTF-8 Plain Text
    Title : Full
    Language : English
    Default : No
    Forced : No
    Menu
    00:00:00.000 : en:00:00:00.000
    00:02:22.434 : en:00:02:22.434
    00:07:35.288 : en:00:07:35.288
    00:16:08.759 : en:00:16:08.759
    00:22:17.253 : en:00:22:17.253
    00:32:00.919 : en:00:32:00.919
    00:36:23.973 : en:00:36:23.973
    00:46:36.794 : en:00:46:36.794
    00:54:12.082 : en:00:54:12.082
    01:05:16.871 : en:01:05:16.871
    01:10:03.366 : en:01:10:03.366
    01:18:27.286 : en:01:18:27.286
    01:23:39.973 : en:01:23:39.973
    01:30:24.669 : en:01:30:24.669

    Размер скачиваемого торрента: 22.70 GB (24372970893 Bytes)

    Молода и прекрасна / Jeune Jolie / Young Beautiful (2013) BDRemux 1080p от GORESEWAGE торрент скачать бесплатно
    загрузка...
    Рейтинг →
     (голосов: 1, оценка 5/5, голосовать можно 1 раз )

    Другие торренты по теме:

  • Молода и прекрасна / Jeune jolie (2013) WEBRip скачать через торрент бесплатно
  • Молода и прекрасна / Jeune jolie (2013) DVDRip скачать через торрент бесплатно
  • Молода и прекрасна / Jeune jolie (2013) BDRip 720p скачать через торрент бесплатно
  • Молода и прекрасна / Jeune jolie (2013) HDRip скачать через торрент бесплатно
  • Молода и прекрасна / Jeune jolie (2013) HDRip от Scarabey | D торрент скачать бесплатно
  • Молода и прекрасна / Jeune jolie (2013) BDRip 720p | Лицензия скачать через торрент бесплатно
  • Молода и прекрасна / Jeune jolie (2013) HDRip | Лицензия скачать через торрент бесплатно
  • Молода и прекрасна / Jeune jolie (2013) DVD5 R5 от New-team | D | лицензия скачать через торрент бесплатно


    • Комментарии (0):

      Информация

      Информация

        Посетители, находящиеся в группе Гости, не могут оставлять комментарии в данной новости.

        ↓ Меню



        ↓ Опрос

        А Вы добавили сайт в закладки?
        Да
        Не


        Top 10 за неделю (Фильмы)