.
Авторизация | Регистрация
Хочешь лучшие торренты? Добавь свой email!
Добавить
» » Дружба народов (2014) WEB-DLRip от Goldenshara торрент скачать бесплатно




    Дружба народов (2014) WEB-DLRip от Goldenshara торрент скачать бесплатно

    Опубликовал: Админ | Дата: 27-02-2015, 11:10 | Просмотров: 634


    Детально о кино
    Русское название в мировом прокате: Дружба народов
    Создали в: 2014
    Категория жанра: Комедия
    Снималось в: Россия
    Главный режиссер: Шабан Муслимов
    Актеры: Екатерина Скулкина, Теймураз Тания, Мария Романова, Анна Аршава, Марина Барсукова, Анна Парцева, Анастасия Акатова, Ирина Гавра

    Сюжет фильма: О семейной жизни лезгина и казачки, Лены и Джабраила Муслимовых, владельцев небольшой стоматологической клиники в Москве. У них двое замечательных детей и множество родственников.

    Файл
    Качество: WEB-DLRip | В релизе отсутствует любая Реклама
    Видео: 720x400 (1.80:1), 25 fps, XviD build 73 ~2077 kbps avg, 0.29 bit/pixel
    Аудио: 44.100 kHz, MPEG Layer 3, 2 ch, ~128.00 kbps avg
    Время просмотра: ~ 00:26:00 / серия
    Язык: Русский
    114.avi


    Внимание! Раздача ведется путем добавления серий!

    Внимание! Раздача ведется путём добавления новых серий; при каждом добавлении создается новый торрент. Чтобы начать докачку новой серии, пользователям необходимо сделать следующее:
    (1) остановить скачивание,
    (2) удалить старый торрент у себя из клиента (старые серии удалять не надо),
    (3) скачать новый торрент и запустить его у себя в клиенте вместо старого, при этом указать клиенту путь в старую папку куда и должно происходить скачивание новых серий.
    Ваш клиент при этом должен произвести хеширование (проверку) старой папки (если не производит сам - помогите ему сделать это), и будет докачивать только те серии которых у вас ещё нет. Старые серии при этом не удаляются, а продолжают раздаваться!
    Если вы уже удалили старые серии, то предотвратить повторную закачку старых серий можно, отжав галочку в соответствующих местах при запуске нового торрента. По возможности, желательно не удалять старые серии как можно дольше чтобы релизер не столько продолжал раздавать старые серии, а смог сконцентрироваться на новых.


    MI

    Общее
    Полное имя : D:Рипы выкладка DeadmauvladРипы готовыеDrujba.narodov.s01.WEBDLRip.DeadmauvladDrujba.narodov.s01.e01.WEBDLRip.Deadmauvlad.avi
    Формат : AVI
    Формат/Информация : Audio Video Interleave
    Размер файла : 350 Мбайт
    Продолжительность : 22 м.
    Общий поток : 2215 Кбит/сек
    Название фильма : Drujba.narodov.s01.e01.WEBDLRip.Deadmauvlad
    Режиссёр : Deadmauvlad
    Жанр : Comedy/Romance/Fantasy
    Программа кодирования : VirtualDubMod 1.5.10.3 | www.virtualdub-fr.org || (build 2550/release)
    Формат оригинала/Имя : TV Series
    Правообладатель : Goldenshara

    Видео
    Идентификатор : 0
    Формат : MPEG-4 Visual
    Профиль формата : Advanced Simple@L5
    Параметр BVOP формата : 1
    Параметр QPel формата : Нет
    Параметр GMC формата : Без точки перехода
    Параметр матрицы формата : Выборочная
    Идентификатор кодека : XVID
    Идентификатор кодека/Подсказка : XviD
    Продолжительность : 22 м.
    Битрейт : 2078 Кбит/сек
    Ширина : 720 пикселей
    Высота : 400 пикселей
    Соотношение сторон : 16:9
    Частота кадров : 25,000 кадров/сек
    Цветовое пространство : YUV
    Субдискретизация насыщенности : 4:2:0
    Битовая глубина : 8 бит
    Тип развёртки : Прогрессивная
    Метод сжатия : С потерями
    Бит/(Пиксели*Кадры) : 0.289
    Размер потока : 328 Мбайт (94%)
    Библиотека кодирования : XviD 73

    Аудио
    Идентификатор : 1
    Формат : MPEG Audio
    Версия формата : Version 1
    Профиль формата : Layer 3
    Идентификатор кодека : 55
    Идентификатор кодека/Подсказка : MP3
    Продолжительность : 22 м.
    Вид битрейта : Постоянный
    Битрейт : 128 Кбит/сек
    Каналы : 2 канала
    Частота : 44,1 КГц
    Метод сжатия : С потерями
    Размер потока : 20,2 Мбайт (6%)
    Выравнивание : Разделение по промежуткам
    Продолжительность промежутка : 40 мс. (1,00 видеокадр)
    Время предзагрузки промежутка : 500 мс.
    Библиотека кодирования : LAME3.99r
    Залил: DJ_V.K_TV
    Размер скачиваемого торрента: 1.03 GB (1100939264 Bytes)


    Дружба народов (2014) WEB-DLRip от Goldenshara торрент скачать бесплатно
    загрузка...
    Рейтинг →
     (голосов: 1, оценка 5/5, голосовать можно 1 раз )

    Другие торренты по теме:

  • Дружба народов (2014) WEB-DLRip
  • Дружба народов (2013) WEB-DL 720p от MediaClub
  • Дружба народов (2013) WEB-DLRIp-AVC от ExKinoRay
  • Дружба народов (2014) WEB-DLRip от Deadmauvlad скачать через торрент бесплатно
  • Дружба народов (2013) HDTV 1080i от MediaClub


    • Комментарии (0):

      Информация

      Информация

        Посетители, находящиеся в группе Гости, не могут оставлять комментарии в данной новости.

        ↓ Меню



        ↓ Опрос

        А Вы добавили сайт в закладки?
        Да
        Не


        Top 10 за месяц (Фильмы)