.
Авторизация | Регистрация
» » Изо всех сил / Over the Top (1987) BDRemux 1080p от New-Team | P, P2, A торрент скачать бесплатно




    Изо всех сил / Over the Top (1987) BDRemux 1080p от New-Team | P, P2, A торрент скачать бесплатно

    Опубликовал: Админ | Дата: 27-02-2015, 11:10 | Просмотров: 315

    Rocky, Rambo, Cobra And Now _Hawk_, In The Biggest Fight Of His Life



    Снималось в: США / Производство: Cannon Group, Golan-Globus Productions Ltd., Warner Bros. Pictures

    Категория жанра: боевик, драма, семейный, спорт
    Создали в: 1987
    Время просмотра: 01:33:36
    Профессиональный (многоголосый) - 20th Century Fox
    Профессиональный (многоголосый) - НТВ
    Профессиональный (многоголосый) - СТС
    Профессиональный (двухголосый) - Фортуна-фильм
    Авторский (одноголосый) - Гаврилов
    Авторский (одноголосый) - Немахов
    Субтитры подготовлены: русский (2 вида), английский (SDH), украинский
    Оригинальная аудиодорожка: английский

    Главный режиссер: Менахем Голан / Menahem Golan

    Актеры: Сильвестр Сталлоне, Роберт Лоджа, Сьюзан Блейкли, Рик Цумвальт, Дэвид Менденхолл, Крис МакКарти, Терри Фанк, Боб Битти, Аллан Граф, Мэджик Шварц...

    Сюжет: Водитель грузовика Линкольн Хоук, по прозвищу Ястреб, едет в Лас-Вегас на чемпионат мира по армрестлингу. У него много забот: надо встретиться и поговорить с бывшей женой, умирающей от странной болезни сердца; проведать, сломав ворота и разобравшись с телохранителями, любимого тестя и любой ценой заполучить сына, брошенного 10 лет назад. Сын, в начале принявший отца в штыки, станет опорой Ястреба и поможет ему выиграть чемпионат.



    Качество фильма: BDRemux 1080p / Blu-ray 1080p
    Тип видео: MKV

    Информация о видео: 1920x1080, VC-1 Video 22995 kbps 1080p / 23,976 fps / 16:9 / Advanced Profile 3
    Информация о звуке 1: русский, DTS Audio 768 kbps 5.1 / 48 kHz / 768 kbps / 24-bit - MVO - 20th Century Fox
    Информация о звуке 2: русский, Dolby Digital Audio 192 kbps 2.0 / 48 kHz / DN -4dB - MVO - НТВ
    Информация о звуке 3: русский, Dolby Digital Audio 192 kbps 2.0 / 48 kHz / DN -4dB - MVO - СТС
    Информация о звуке 4: русский, Dolby Digital Audio 192 kbps 2.0 / 48 kHz / DN -4dB - DVO - Фортуна-фильм
    Информация о звуке 5: русский, Dolby Digital Audio 192 kbps 2.0 / 48 kHz / DN -4dB - AVO - Гаврилов
    Информация о звуке 6: русский, Dolby Digital Audio 192 kbps 2.0 / 48 kHz / DN -4dB - AVO - Немахов
    Информация о звуке 7: английский, Dolby TrueHD Audio 1782 kbps 5.1 / 48 kHz / 1782 kbps / 16-bit (AC3 Embedded: 5.1 / 48 kHz / 640 kbps / DN -4dB)
    Тип видео субтитров: SoftSub (srt)

    Дополнительно: Фильм разбит на главы, как на оригинальном Blu-ray диске.

    Раздача от:
    MediaInfo

    Общее
    Полное имя : Izo.vseh.sil.1987.P.BDRemux.1080p.mkv
    Формат : Matroska
    Версия формата : Version 4 / Version 2
    Размер файла : 17,4 Гбайт
    Продолжительность : 1 ч. 34 м.
    Режим общего битрейта : Переменный
    Общий поток : 26,4 Мбит/сек
    Дата кодирования : UTC 2014-03-07 18:56:45
    Программа кодирования : mkvmerge v6.8.0 (;Theme for Great Cities;) 64bit built on Mar 2 2014 21:34:26
    Библиотека кодирования : libebml v1.3.0 libmatroska v1.4.1

    Видео
    Идентификатор : 1
    Формат : VC-1
    Профиль формата : Advanced@L3
    Идентификатор кодека : V_MS/VFW/FOURCC / WVC1
    Идентификатор кодека/Подсказка : Microsoft
    Продолжительность : 1 ч. 34 м.
    Ширина : 1920 пикселей
    Высота : 1080 пикселей
    Соотношение сторон : 16:9
    Режим частоты кадров : Постоянный
    Частота кадров : 23,976 кадра/сек
    Цветовое пространство : YUV
    Субдискретизация насыщенности : 4:2:0
    Битовая глубина : 8 бит
    Тип развёртки : Прогрессивная
    Метод сжатия : С потерями
    Язык : English
    Default : Да
    Forced : Нет

    Аудио #1
    Идентификатор : 2
    Формат : DTS
    Формат/Информация : Digital Theater Systems
    Режим : 16
    Параметр Endianness формата : Big
    Идентификатор кодека : A_DTS
    Продолжительность : 1 ч. 34 м.
    Вид битрейта : Постоянный
    Битрейт : 755 Кбит/сек
    Каналы : 6 каналов
    Расположение каналов : Front: L C R, Side: L R, LFE
    Частота : 48,0 КГц
    Битовая глубина : 24 бит
    Метод сжатия : С потерями
    Размер потока : 508 Мбайт (3%)
    Заголовок : 20th Century Fox
    Язык : Russian
    Default : Да
    Forced : Нет

    Аудио #2
    Идентификатор : 3
    Формат : AC-3
    Формат/Информация : Audio Coding 3
    Расширение режима : CM (complete main)
    Параметр Endianness формата : Big
    Идентификатор кодека : A_AC3
    Продолжительность : 1 ч. 34 м.
    Вид битрейта : Постоянный
    Битрейт : 192 Кбит/сек
    Каналы : 2 канала
    Расположение каналов : Front: L R
    Частота : 48,0 КГц
    Битовая глубина : 16 бит
    Метод сжатия : С потерями
    Размер потока : 129 Мбайт (1%)
    Заголовок : MVO NTV
    Язык : Russian
    Default : Нет
    Forced : Нет

    Аудио #3
    Идентификатор : 4
    Формат : AC-3
    Формат/Информация : Audio Coding 3
    Расширение режима : CM (complete main)
    Параметр Endianness формата : Big
    Идентификатор кодека : A_AC3
    Продолжительность : 1 ч. 34 м.
    Вид битрейта : Постоянный
    Битрейт : 192 Кбит/сек
    Каналы : 2 канала
    Расположение каналов : Front: L R
    Частота : 48,0 КГц
    Битовая глубина : 16 бит
    Метод сжатия : С потерями
    Задержка видео : -69 мс.
    Размер потока : 129 Мбайт (1%)
    Заголовок : MVO STS
    Язык : Russian
    Default : Нет
    Forced : Нет

    Аудио #4
    Идентификатор : 5
    Формат : AC-3
    Формат/Информация : Audio Coding 3
    Расширение режима : CM (complete main)
    Параметр Endianness формата : Big
    Идентификатор кодека : A_AC3
    Продолжительность : 1 ч. 34 м.
    Вид битрейта : Постоянный
    Битрейт : 192 Кбит/сек
    Каналы : 2 канала
    Расположение каналов : Front: L R
    Частота : 48,0 КГц
    Битовая глубина : 16 бит
    Метод сжатия : С потерями
    Задержка видео : -69 мс.
    Размер потока : 129 Мбайт (1%)
    Заголовок : DVO Fortuna-film
    Язык : Russian
    Default : Нет
    Forced : Нет

    Аудио #5
    Идентификатор : 6
    Формат : AC-3
    Формат/Информация : Audio Coding 3
    Расширение режима : CM (complete main)
    Параметр Endianness формата : Big
    Идентификатор кодека : A_AC3
    Продолжительность : 1 ч. 34 м.
    Вид битрейта : Постоянный
    Битрейт : 192 Кбит/сек
    Каналы : 2 канала
    Расположение каналов : Front: L R
    Частота : 48,0 КГц
    Битовая глубина : 16 бит
    Метод сжатия : С потерями
    Размер потока : 129 Мбайт (1%)
    Заголовок : AVO Gavrilov
    Язык : Russian
    Default : Нет
    Forced : Нет

    Аудио #6
    Идентификатор : 7
    Формат : AC-3
    Формат/Информация : Audio Coding 3
    Расширение режима : CM (complete main)
    Параметр Endianness формата : Big
    Идентификатор кодека : A_AC3
    Продолжительность : 1 ч. 34 м.
    Вид битрейта : Постоянный
    Битрейт : 192 Кбит/сек
    Каналы : 2 канала
    Расположение каналов : Front: L R
    Частота : 48,0 КГц
    Битовая глубина : 16 бит
    Метод сжатия : С потерями
    Размер потока : 129 Мбайт (1%)
    Заголовок : AVO Nemahov
    Язык : Russian
    Default : Нет
    Forced : Нет

    Аудио #7
    Идентификатор : 8
    Формат : TrueHD
    Идентификатор кодека : A_TRUEHD
    Продолжительность : 1 ч. 34 м.
    Вид битрейта : Переменный
    Максимальный битрейт : 2772 Кбит/сек
    Каналы : 6 каналов
    Расположение каналов : Front: L C R, Side: L R, LFE
    Частота : 48,0 КГц
    Метод сжатия : Без потерь
    Задержка видео : -69 мс.
    Язык : English
    Default : Нет
    Forced : Нет

    Текст #1
    Идентификатор : 9
    Формат : UTF-8
    Идентификатор кодека : S_TEXT/UTF8
    Идентификатор кодека/Информация : UTF-8 Plain Text
    Заголовок : rus1
    Язык : Russian
    Default : Нет
    Forced : Нет

    Текст #2
    Идентификатор : 10
    Формат : UTF-8
    Идентификатор кодека : S_TEXT/UTF8
    Идентификатор кодека/Информация : UTF-8 Plain Text
    Заголовок : rus2
    Язык : Russian
    Default : Нет
    Forced : Нет

    Текст #3
    Идентификатор : 11
    Формат : UTF-8
    Идентификатор кодека : S_TEXT/UTF8
    Идентификатор кодека/Информация : UTF-8 Plain Text
    Язык : Ukrainian
    Default : Нет
    Forced : Нет

    Текст #4
    Идентификатор : 12
    Формат : UTF-8
    Идентификатор кодека : S_TEXT/UTF8
    Идентификатор кодека/Информация : UTF-8 Plain Text
    Язык : English
    Default : Нет
    Forced : Нет

    Меню
    00:00:00.000 : en:00:00:00.000
    00:05:16.274 : en:00:05:16.274
    00:09:09.507 : en:00:09:09.507
    00:11:51.085 : en:00:11:51.085
    00:15:04.946 : en:00:15:04.946
    00:17:57.451 : en:00:17:57.451
    00:21:57.358 : en:00:21:57.358
    00:25:15.431 : en:00:25:15.431
    00:29:51.999 : en:00:29:51.999
    00:33:25.503 : en:00:33:25.503
    00:35:49.522 : en:00:35:49.522
    00:39:19.482 : en:00:39:19.482
    00:44:15.152 : en:00:44:15.152
    00:48:48.968 : en:00:48:48.968
    00:54:35.731 : en:00:54:35.731
    00:59:02.456 : en:00:59:02.456
    01:03:02.153 : en:01:03:02.153
    01:06:50.048 : en:01:06:50.048
    01:09:41.094 : en:01:09:41.094
    01:12:20.711 : en:01:12:20.711
    01:14:37.848 : en:01:14:37.848
    01:17:39.822 : en:01:17:39.822
    01:20:10.472 : en:01:20:10.472
    01:23:58.700 : en:01:23:58.700
    01:28:04.738 : en:01:28:04.738

    Скриншоты для ознакомления:



    Торрент перезалит 7 марта 2014 года. Добавлены звуки и субтитры, субтитры переведены в формат srt.
    Залил: avproh
    Размер скачиваемого торрента: 17.37 GB (18649419401 Bytes)

    Изо всех сил / Over the Top (1987) BDRemux 1080p от New-Team | P, P2, A торрент скачать бесплатно
    загрузка...
    Рейтинг →
     (голосов: 1, оценка 3/5, голосовать можно 1 раз )

    Другие торренты по теме:

  • Изо всех сил / Over the Top (1987) HDRip-AVC | P торрент скачать бесплатно
  • Изо всех сил / Over the Top (1987) BDRip-AVC от New-Team | P, P2, A торрент скачать бесплатно
  • Изо всех сил / Over the Top (1987) BDRip от New-Team | P, P2, A торрент скачать бесплатно
  • Изо всех сил / Over the Top (1987) BDRip 1080p от NNNB | P, P2, A скачать через торрент бесплатно
  • Изо всех сил / Over the Top / 1987 / АП (Гаврилов) / BDRip скачать торрент бесплатно


    • Комментарии (0):

      Информация

      Информация

        Посетители, находящиеся в группе Гости, не могут оставлять комментарии в данной новости.

        ↓ Меню



        ↓ Опрос

        А Вы добавили сайт в закладки?
        Да
        Не


        Top 10 за неделю (Фильмы)