.
Авторизация | Регистрация
Хочешь лучшие торренты? Добавь свой email!
Добавить
» » Гарри Поттер и кубок огня / Harry Potter and the Goblet of Fire (2005) HDRip-AVC | iPhone | D торрент скачать бесплатно




    Гарри Поттер и кубок огня / Harry Potter and the Goblet of Fire (2005) HDRip-AVC | iPhone | D торрент скачать бесплатно

    Опубликовал: Админ | Дата: 27-02-2015, 11:10 | Просмотров: 229



    Гарри Поттер и кубок огня / Harry Potter and the Goblet of Fire (2005) HDRip-AVC | iPhone | D

    Русское название: Гарри Поттер и кубок огня
    Русское название в мировом прокате: Harry Potter and the Goblet of Fire
    Создали в: 2005
    Категория жанра: фэнтези, приключения, семейный
    Главный режиссер: Майк Ньюэлл
    Актеры: Дэниэл Рэдклифф, Руперт Гринт, Эмма Уотсон, Том Фелтон, Кеннет Брэна, Бонни Райт, Алан Рикман, Ричард Харрис, Мэгги Смит, Робби Колтрейн

    Сюжет фильма:
    Гарри Поттер, Рон и Гермиона возвращаются на четвертый курс школы чародейства и волшебства Хогвартс. При таинственных обстоятельствах Гарри отобран в число участников опасного соревнования — Турнира Трех Волшебников, однако проблема в том, что все его соперники — намного старше и сильнее. К тому же, знаки указывают на возвращение Лорда Волдеморта. Вскоре Гарри предстоит побороться не только за победу в соревновании, но и, прежде всего, за свою жизнь…



    Снималось в: США, Великобритания
    Киностудия: Warner Bros. Pictures
    Время просмотра: 02:37:05
    Перевод текста: Русский дублированный

    Файл
    Кодек для видео: H.264
    Качество фильма: HDRip-AVC 480p iPhone
    Информация о видео: 640x354@852x354 (2.40:1) at 23.976 fps, AVC at 1600 kbps
    Информация о звуке:
    1: 48 kHz, AAC 2.0, 144 kbps - Русский дублированный (Blu-ray CEE)
    2: 48 kHz, AAC 2.0, 144 kbps - Английский
    Субтитры: Русские, Английские

    Media Info

    General
    Complete name : C:CREATE480outHarry Potter and the Goblet of Fire.2005 (SD).m4v
    Format : MPEG-4
    Codec ID : M4V
    File size : 2.06 GiB
    Duration : 2h 37mn
    Overall bit rate mode : Variable
    Overall bit rate : 1 881 Kbps
    Movie name : Гарри Поттер и кубок огня
    Performer : Mike Newell
    Genre : Kids Family
    Recorded date : UTC 2005-11-06 08:00:00
    Encoded date : UTC 2014-03-07 18:47:04
    Tagged date : UTC 2014-03-07 19:12:41
    Copyright : © 2006 Warner Bros. Entertainment Inc. Harry Potter Publishing Rights J.K. Rowling. Harry Potter characters, names and related indicia are trademarks of and Warner Bros. Entertainment Inc. All rights reserved.
    Cover : Yes
    Comment : Впереди темные и страшные времена
    sonm : Harry Potter and the Goblet of Fire
    desc : Гарри Поттер, Рон и Гермиона возвращаются на четвертый курс школы чародейства и волшебства Хогвартс. При таинственных обстоятельствах Гарри отобран в число участников опасного соревнования — Турнира Трех Волшебников.
    ldes : Гарри Поттер, Рон и Гермиона возвращаются на четвертый курс школы чародейства и волшебства Хогвартс. При таинственных обстоятельствах Гарри отобран в число участников опасного соревнования — Турнира Трех Волшебников, однако проблема в том, что все его соперники — намного старше и сильнее. К тому же, знаки указывают на возвращение Лорда Волдеморта. Вскоре Гарри предстоит побороться не только за победу в соревновании, но и, прежде всего, за свою жизнь…
    stik : 9
    rtng : 0
    cnID : 285832716
    xid : Apple:vendor_id:2005-8408
    iTunEXTC : mpaa|PG-13|300|

    Video #1
    ID : 1
    Format : AVC
    Format/Info : Advanced Video Codec
    Format profile : Baseline@L3.0
    Format settings, CABAC : No
    Format settings, ReFrames : 2 frames
    Codec ID : avc1
    Codec ID/Info : Advanced Video Coding
    Duration : 2h 37mn
    Bit rate : 1 600 Kbps
    Maximum bit rate : 7 230 Kbps
    Width : 640 pixels
    Height : 354 pixels
    Display aspect ratio : 2.40:1
    Frame rate mode : Constant
    Frame rate : 23.976 fps
    Color space : YUV
    Chroma subsampling : 4:2:0
    Bit depth : 8 bits
    Scan type : Progressive
    Bits/(Pixel*Frame) : 0.295
    Stream size : 1.75 GiB (85%)
    Title : Harry Potter and the Goblet of Fire _2005_
    Writing library : x264 core 140 r2377 40 929f149 tMod 8-bit@4:2:0 X86_64
    Encoding settings : cabac=0 / ref=2 / deblock=1:-2:-2 / analyse=0x1:0x131 / me=umh / subme=7 / psy=1 / fade_compensate=1.00 / psy_rd=1.05:0.15 / mixed_ref=1 / me_range=32 / chroma_me=1 / trellis=2 / 8x8dct=0 / cqm=0 / deadzone=21,11 / fast_pskip=0 / chroma_qp_offset=-3 / threads=12 / lookahead_threads=2 / sliced_threads=0 / nr=0 / decimate=0 / interlaced=0 / bluray_compat=0 / constrained_intra=0 / fgo=0 / bframes=0 / weightp=0 / keyint=250 / keyint_min=23 / scenecut=40 / intra_refresh=0 / rc_lookahead=120 / rc=2pass / mbtree=1 / bitrate=1600 / ratetol=1.0 / qcomp=0.60 / qpmin=0:0:0 / qpmax=69:69:69 / qpstep=4 / cplxblur=20.0 / qblur=0.5 / vbv_maxrate=5000 / vbv_bufsize=5000 / nal_hrd=none / filler=0 / ip_ratio=1.30 / aq=1:0.90 / aq-sensitivity=10.00 / aq-factor=1.00:1.00:1.00 / aq2=0 / aq3=1:0.50:0.50:0.50:0.50:0.50:0.50:0.50:0.50 / aq3-sensitivity=10.00 / aq3-factor=1.00:1.00:1.00:1.00:1.00:1.00 / aq3-boundary=205:56:9
    Language : English
    Encoded date : UTC 2014-03-07 18:47:04
    Tagged date : UTC 2014-03-07 18:47:47
    Matrix coefficients : BT.709

    Video #2
    ID : 7
    Format : JPEG
    Codec ID : jpeg
    Duration : 2h 37mn
    Bit rate mode : Variable
    Bit rate : 749 bps
    Width : 640 pixels
    Height : 266 pixels
    Display aspect ratio : 2.40:1
    Frame rate mode : Variable
    Frame rate : 0.003 fps
    Minimum frame rate : 0.001 fps
    Maximum frame rate : 0.007 fps
    Color space : YUV
    Chroma subsampling : 4:2:0
    Bit depth : 8 bits
    Compression mode : Lossy
    Bits/(Pixel*Frame) : 1.467
    Stream size : 884 KiB (0%)
    Language : English
    Encoded date : UTC 2014-03-07 19:09:52
    Tagged date : UTC 2014-03-07 19:09:53

    Audio #1
    ID : 2
    Format : AAC
    Format/Info : Advanced Audio Codec
    Format profile : LC
    Codec ID : 40
    Duration : 2h 37mn
    Bit rate mode : Variable
    Bit rate : 144 Kbps
    Maximum bit rate : 177 Kbps
    Channel(s) : 2 channels
    Channel positions : Front: L R
    Sampling rate : 48.0 KHz
    Compression mode : Lossy
    Stream size : 159 MiB (8%)
    Title : Dub Blu_ray CEE
    Language : Russian
    Encoded date : UTC 2014-03-07 18:40:31
    Tagged date : UTC 2014-03-07 18:47:47

    Audio #2
    ID : 3
    Format : AAC
    Format/Info : Advanced Audio Codec
    Format profile : LC
    Codec ID : 40
    Duration : 2h 37mn
    Bit rate mode : Variable
    Bit rate : 144 Kbps
    Maximum bit rate : 177 Kbps
    Channel(s) : 2 channels
    Channel positions : Front: L R
    Sampling rate : 48.0 KHz
    Compression mode : Lossy
    Stream size : 160 MiB (8%)
    Title : Original
    Language : English
    Encoded date : UTC 2014-03-07 18:43:50
    Tagged date : UTC 2014-03-07 18:47:47

    Text #1
    ID : 4
    Format : Timed Text
    Muxing mode : sbtl
    Codec ID : tx3g
    Duration : 2h 23mn
    Bit rate mode : Variable
    Bit rate : 85 bps
    Stream size : 89.4 KiB (0%)
    Title : Subtitle Russian
    Language : Russian
    Encoded date : UTC 2014-03-07 18:47:46
    Tagged date : UTC 2014-03-07 18:47:47

    Text #2
    ID : 5
    Format : Timed Text
    Muxing mode : sbtl
    Codec ID : tx3g
    Duration : 2h 23mn
    Bit rate mode : Variable
    Bit rate : 56 bps
    Stream size : 58.5 KiB (0%)
    Title : Subtitle English
    Language : English
    Encoded date : UTC 2014-03-07 18:47:46
    Tagged date : UTC 2014-03-07 18:47:47

    Menu
    ID : 6
    Codec ID : text
    Duration : 2h 37mn
    Language : English
    Encoded date : UTC 2014-03-07 18:49:10
    Tagged date : UTC 2014-03-07 18:49:10
    Bit rate mode : VBR
    iTunes Meta Tags

    Sort Name: Harry Potter and the Goblet of Fire
    XID: Apple:vendor_id:2005-8408
    contentID: 285832716
    Copyright: © 2006 Warner Bros. Entertainment Inc. Harry Potter Publishing Rights J.K. Rowling. Harry Potter characters, names and related indicia are trademarks of and Warner Bros. Entertainment Inc. All rights reserved.
    Screenwriters: Стивен Кловз, Дж.К. Роулинг
    Producers: Дэвид Хейман, Лорни Орлинз, Дэвид Баррон
    Director: Майк Ньюэлл
    Cast: Дэниэл Рэдклифф, Руперт Гринт, Эмма Уотсон, Брендан Глисон, Алан Рикман, Майкл Гэмбон, Рэйф Файнс, Роберт Паттинсон, Робби Колтрейн, Мэгги Смит // Daniel Radcliffe (Harry Potter), Rupert Grint (Ron Weasley), Emma Watson (Hermione Granger), Ralph Fiennes (Lord Voldemort), Michael Gambon (Albus Dumbledore), Alan Rickman (Severus Snape), Robbie Coltrane (Rubeus Hagrid), Brendan Gleeson (Alastor Mad-Eye Moody), Miranda Richardson (Rita Skeeter), Gary Oldman (Sirius Black), Robert Pattinson (Cedric Diggory), Stanislav Ianevski (Viktor Krum), Cl?mence Po?sy (Fleur Delacour), Josh Herdman (Gregory Goyle), Maggie Smith (Minerva McGonagall), Geraldine Somerville (Lily Potter), Matthew Lewis (Neville Longbottom), Frances de la Tour (Madame Olympe Maxime), Tom Felton (Draco Malfoy), Roger Lloyd-Pack (Barty Crouch, Sr.), Jason Isaacs (Lucius Malfoy), Eric Sykes (Frank Bryce), Timothy Spall (Wormtail), David Tennant (Bartemius ;Barty; Crouch Junior), Mark Williams (Arthur Weasley), James Phelps (Fred Weasley), Oliver Phelps (George Weasley), Bonnie Wright (Ginny Weasley), Jeff Rawle (Amos Diggory), Robert Hardy (Cornelius Fudge), Sheila Allen (Ministry Witch), Su Elliott (Ministry Witch), Anne Lacy (Ministry Witch), Flip Webster (Ministry Witch), David Sterne (Ministry Wizard), Christopher Whittingham (Ministry Wizard), Liam McKenna (Ministry Wizard), Campbell Graham (Ministry Wizard), Margery Mason (Food Trolley Lady), Katie Leung (Cho Chang), William Melling (Nigel), David Bradley (Argus Filch), Devon Murray (Seamus Finnigan), Afshan Azad (Padma Patil), Warwick Davis (Filius Flitwick), Shefali Chowdhury (Parvati Patil), Angelica Mandy (Gabrielle Delacour), Predrag Bjelac (Igor Karkaroff), Tolga Safer (Karkaroff;s Aide), Alfie Enoch (Dean Thomas), Louis Doyle (Ernie MacMillan), Jamie Waylett (Vincent Crabbe), Charlotte Skeoch (Hannah Abbott), Robert Wilfort (Photographer), Tiana Benjamin (Angelina Johnson), Henry Lloyd-Hughes (Roger Davies), Jarvis Cocker (Band Lead Singer), Jonny Greenwood (Band Lead Guitar), Phil Selway (Band Drums), Steve Mackey (Band Bass Guitar), Jason Buckle (Band Rhythm Guitar), Steve Claydon (Band Keyboards), Shirley Henderson (Moaning Myrtle), Alan Watt (Assistant Judge), Adrian Rawlins (James Potter)
    Studio: Warner Bros.
    Rating: 4
    Long Deion: Гарри Поттер, Рон и Гермиона возвращаются на четвертый курс школы чародейства и волшебства Хогвартс. При таинственных обстоятельствах Гарри отобран в число участников опасного соревнования — Турнира Трех Волшебников, однако проблема в том, что все его соперники — намного старше и сильнее. К тому же, знаки указывают на возвращение Лорда Волдеморта. Вскоре Гарри предстоит побороться не только за победу в соревновании, но и, прежде всего, за свою жизнь…
    Deion: Гарри Поттер, Рон и Гермиона возвращаются на четвертый курс школы чародейства и волшебства Хогвартс. При таинственных обстоятельствах Гарри отобран в число участников опасного соревнования — Турнира Трех Волшебников.
    Release Date: 2005-11-06T08:00:00Z
    Genre: Kids Family
    Comments: Впереди темные и страшные времена
    Artist: Mike Newell
    Name: Гарри Поттер и кубок огня
    x264 Log

    x264 info: frame I:4396 Avg QP:17.83 size: 17449
    x264 info: frame P:221587 Avg QP:19.57 size: 8113
    x264 info: mb I I16..4: 42.1% 0.0% 57.9%
    x264 info: mb P I16..4: 2.3% 0.0% 2.4% P16..4: 49.8% 17.6% 9.2% 1.6% 0.8% skip:16.3%
    x264 info: coded y,uvDC,uvAC intra: 46.5% 60.6% 27.2% inter: 37.8% 30.4% 11.0%
    x264 info: i16 v,h,dc,p: 52% 13% 9% 27%
    x264 info: i4 v,h,dc,ddl,ddr,vr,hd,vl,hu: 37% 11% 16% 6% 7% 8% 5% 6% 4%
    x264 info: i8c dc,h,v,p: 59% 12% 23% 6%
    x264 info: ref P L0: 76.0% 24.0%
    x264 info: kb/s:1590.95




    Залил: gekka
    Размер скачиваемого торрента: 2.06 GB (2216149470 Bytes)

    Гарри Поттер и кубок огня / Harry Potter and the Goblet of Fire (2005) HDRip-AVC | iPhone | D торрент скачать бесплатно
    загрузка...
    Рейтинг →
     (голосов: 1, оценка 3/5, голосовать можно 1 раз )

    Другие торренты по теме:

  • Гарри Поттер: Антология / Harry Potter: Antology (2001-2011) BDRip 720p от R.G. GoldenShara
  • Гарри Поттер и Белое Золото II / Harry Potter and the Deathly Hallows: Part 2 (2011 / 2012) BDRip
  • Роулинг Джоан Кэтлин - Гарри Поттер. Книги 1-7 (2006-2011) MP3
  • Роулинг Джоан Кэтлин - Гарри Поттер. Книги 1-6 (2012) MP3
  • Гарри Поттер и Принц-полукровка / Harry Potter and the Half-Blood Prince (2009) HDRip от Scarabey | D
  • Гарри Поттер и орден Феникса / Harry Potter and the Order of the Phoenix (2007) HDRip от Scarabey | D
  • Гарри Поттер и кубок огня / Harry Potter and the Goblet of Fire (2005) HDRip от Scarabey | D
  • Гарри Поттер и узник Азкабана / Harry Potter and the Prisoner of Azkaban (2004) HDRip от Scarabey | D


    • Комментарии (0):

      Информация

      Информация

        Посетители, находящиеся в группе Гости, не могут оставлять комментарии в данной новости.

        ↓ Меню



        ↓ Опрос

        А Вы добавили сайт в закладки?
        Да
        Не


        Top 10 за месяц (Фильмы)