.
Авторизация | Регистрация
» » Великая красота / La Grande Bellezza / The Great Beauty (2013) BDRip 720p от GORESEWAGE | Лицензия торрент скачать бесплатно




    Великая красота / La Grande Bellezza / The Great Beauty (2013) BDRip 720p от GORESEWAGE | Лицензия торрент скачать бесплатно

    Опубликовал: Админ | Дата: 27-02-2015, 11:10 | Просмотров: 234



    Великая красота / La Grande Bellezza / The Great Beauty

    Создали в: 2013
    Снималось в: Италия, Франция
    Категория жанра: драма, комедия
    Время просмотра: 02:20:41
    Перевод текста: Профессиональный (многоголосый закадровый) DVD R5
    Оригинальная аудиодорожка: Italian
    Субтитры: Italian (SDH), English (Full), German (Full), Greek (Full), Portuguese (Full BRA), Romanian (Full), Serbian (Full), Slovenian (Full), Spanish (Full), Turkish (Full)
    Киностудия: Indigo Film, Medusa Film (co-production), Babe Film (co-production), Path? (co-production), France 2 Cin?ma (co-production), Mediaset (in association with) (as Mediaset Premium), Canal (with the participation of), Cin? (in association with), France T?l?visions (in association with), Regione Lazio (support), Ministero per i Beni e le Attivit? Culturali (MiBAC) (support), Banca Popolare di Vicenza (support), Lazio Film Commission (support), Fonds Eurimages du Conseil de l;Europe (support) (as Eurimages), Programme MEDIA de la Communaut? Europ?enne (support), Biscottificio Verona (support)

    Главный режиссёр: Паоло Соррентино / Paolo Sorrentino

    Актеры: Тони Сервилло, Карло Вердоне, Сабрина Ферилли, Карло Буччироссо, Яя Форте, Памела Виллорези, Галатея Ранци, Франко Грациози, Джорджо Пазотти, Массимо Пополицио и др.

    Сюжет: Аристократки, нувориши, политики, преступники высокого полёта, журналисты, актёры, декаденствующие отпрыски благородных семейств, священники, художники, подлинные или мнимые интеллектуалы… Всех их поглощает современный Вавилон, пока они ткут канву непрочных взаимоотношений, предаваясь суетной жизни на фоне старинных дворцов, огромных вилл и великолепных террас. Все они здесь, и никто не предстаёт в выгодном свете.

    Апатичный и разочарованный 65-летний Джеп Гамбарделла, писатель и журналист, не расстающийся со стаканом джина с тоником, наблюдает за этим парадом влиятельных, но пустых и потерянных людей, которые производят на него гнетущее впечатление. Головокружительная картина потери нравственных ориентиров разворачивается в атмосфере великолепного и безразличного римского лета. Вечный город подобен умершей диве.



    Sample

    Качество фильма: BDRip 720p (EbP)
    Контейнер: MKV
    Информация о видео кодек: MPEG-4 AVC Video
    Информация о звуке кодек: DTS / AC3
    Информация о видео: MPEG-4 AVC Video / 8210 kbps / 1280x544p / 24,000 fps / 2.35:1 / High Profile 4.1
    Информация о звуке 1: Russian / AC3 / 5.1 / 48 kHz / 448 kbps / 16-bit | MVO DVD R5
    Информация о звуке 2: Italian / DTS / 5.1 / 48 kHz / 1536 kbps / 16-bit | Original
    Навигация по главам: да

    Screens

    MediaInfo
    C:/GORESEWAGE/La Grande Bellezza (The Great Beauty) 2013 BDRip 720p GORESEWAGE.mkv
    General
    Unique ID : 252982424829816348173400391547664311370 (0xBE52A48A8005C3D193BC7D22F9ADA44A)
    Complete name : C:/GORESEWAGE/La Grande Bellezza (The Great Beauty) 2013 BDRip 720p GORESEWAGE.mkv
    Format : Matroska
    Format version : Version 4 / Version 2
    File size : 10.2 GiB
    Duration : 2h 20mn
    Overall bit rate : 10.4 Mbps
    Movie name : La Grande Bellezza (The Great Beauty) 2013 BDRip 720p GORESEWAGE
    Encoded date : UTC 2014-03-07 17:42:00
    Writing application : mkvmerge v6.8.0 (;Theme for Great Cities;) 64bit built on Mar 2 2014 21:34:26
    Writing library : libebml v1.3.0 libmatroska v1.4.1
    Attachment : Yes
    Video #1
    ID : 1
    Format : AVC
    Format/Info : Advanced Video Codec
    Format profile : High@L4.1
    Format settings, CABAC : Yes
    Format settings, ReFrames : 11 frames
    Codec ID : V_MPEG4/ISO/AVC
    Duration : 2h 20mn
    Bit rate : 8 210 Kbps
    Width : 1 280 pixels
    Height : 544 pixels
    Display aspect ratio : 2.35:1
    Frame rate mode : Constant
    Frame rate : 24.000 fps
    Color space : YUV
    Chroma subsampling : 4:2:0
    Bit depth : 8 bits
    Scan type : Progressive
    Bits/(Pixel*Frame) : 0.491
    Stream size : 8.07 GiB (79%)
    Title : La Grande Bellezza (The Great Beauty) 2013 BDRip 720p GORESEWAGE
    Writing library : x264 core 140 r2377 1ca7bb9
    Encoding settings : cabac=1 / ref=11 / deblock=1:-3:-3 / analyse=0x3:0x113 / me=umh / subme=11 / psy=1 / psy_rd=1.05:0.00 / mixed_ref=1 / me_range=32 / chroma_me=1 / trellis=2 / 8x8dct=1 / cqm=0 / deadzone=21,11 / fast_pskip=0 / chroma_qp_offset=-2 / threads=48 / lookahead_threads=4 / sliced_threads=0 / nr=0 / decimate=0 / interlaced=0 / bluray_compat=0 / constrained_intra=0 / bframes=9 / b_pyramid=2 / b_adapt=2 / b_bias=0 / direct=3 / weightb=1 / open_gop=0 / weightp=2 / keyint=240 / keyint_min=24 / scenecut=40 / intra_refresh=0 / rc_lookahead=120 / rc=crf / mbtree=0 / crf=16.0 / qcomp=0.60 / qpmin=0 / qpmax=69 / qpstep=4 / vbv_maxrate=62500 / vbv_bufsize=78125 / crf_max=0.0 / nal_hrd=none / filler=0 / ip_ratio=1.40 / pb_ratio=1.30 / aq=2:0.80
    Language : Italian
    Default : Yes
    Forced : No
    Audio #2
    ID : 2
    Format : AC-3
    Format/Info : Audio Coding 3
    Mode extension : CM (complete main)
    Format settings, Endianness : Big
    Codec ID : A_AC3
    Duration : 2h 20mn
    Bit rate mode : Constant
    Bit rate : 448 Kbps
    Channel count : 6 channels
    Channel positions : Front: L C R, Side: L R, LFE
    Sampling rate : 48.0 KHz
    Bit depth : 16 bits
    Compression mode : Lossy
    Stream size : 451 MiB (4%)
    Title : MVO DVD R5
    Language : Russian
    Default : Yes
    Forced : No
    Audio #3
    ID : 3
    Format : DTS
    Format/Info : Digital Theater Systems
    Mode : 16
    Format settings, Endianness : Big
    Codec ID : A_DTS
    Duration : 2h 20mn
    Bit rate mode : Constant
    Bit rate : 1 509 Kbps
    Channel count : 6 channels
    Channel positions : Front: L C R, Side: L R, LFE
    Sampling rate : 48.0 KHz
    Bit depth : 24 bits
    Compression mode : Lossy
    Stream size : 1.48 GiB (15%)
    Title : Original
    Language : Italian
    Default : No
    Forced : No
    Text #4
    ID : 4
    Format : UTF-8
    Codec ID : S_TEXT/UTF8
    Codec ID/Info : UTF-8 Plain Text
    Title : SDH
    Language : Italian
    Default : No
    Forced : No
    Text #5
    ID : 5
    Format : UTF-8
    Codec ID : S_TEXT/UTF8
    Codec ID/Info : UTF-8 Plain Text
    Title : Full
    Language : English
    Default : No
    Forced : No
    Text #6
    ID : 6
    Format : UTF-8
    Codec ID : S_TEXT/UTF8
    Codec ID/Info : UTF-8 Plain Text
    Title : Full
    Language : German
    Default : No
    Forced : No
    Text #7
    ID : 7
    Format : UTF-8
    Codec ID : S_TEXT/UTF8
    Codec ID/Info : UTF-8 Plain Text
    Title : Full
    Language : Greek
    Default : No
    Forced : No
    Text #8
    ID : 8
    Format : UTF-8
    Codec ID : S_TEXT/UTF8
    Codec ID/Info : UTF-8 Plain Text
    Title : Full BRA
    Language : Portuguese
    Default : No
    Forced : No
    Text #9
    ID : 9
    Format : UTF-8
    Codec ID : S_TEXT/UTF8
    Codec ID/Info : UTF-8 Plain Text
    Title : Full
    Language : Romanian
    Default : No
    Forced : No
    Text #10
    ID : 10
    Format : UTF-8
    Codec ID : S_TEXT/UTF8
    Codec ID/Info : UTF-8 Plain Text
    Title : Full
    Language : Serbian
    Default : No
    Forced : No
    Text #11
    ID : 11
    Format : UTF-8
    Codec ID : S_TEXT/UTF8
    Codec ID/Info : UTF-8 Plain Text
    Title : Full
    Language : Slovenian
    Default : No
    Forced : No
    Text #12
    ID : 12
    Format : UTF-8
    Codec ID : S_TEXT/UTF8
    Codec ID/Info : UTF-8 Plain Text
    Title : Full
    Language : Spanish
    Default : No
    Forced : No
    Text #13
    ID : 13
    Format : UTF-8
    Codec ID : S_TEXT/UTF8
    Codec ID/Info : UTF-8 Plain Text
    Title : Full
    Language : Turkish
    Default : No
    Forced : No
    Menu
    00:00:00.000 : :00:00:00.000
    00:12:38.833 : :00:12:38.833
    00:21:04.625 : :00:21:04.625
    00:26:05.208 : :00:26:05.208
    00:42:57.917 : :00:42:57.917
    00:54:46.042 : :00:54:46.042
    01:10:15.000 : :01:10:15.000
    01:22:31.750 : :01:22:31.750
    01:31:05.417 : :01:31:05.417
    01:45:46.417 : :01:45:46.417
    01:54:50.833 : :01:54:50.833
    02:07:58.833 : :02:07:58.833

    Размер скачиваемого торрента: 10.19 GB (10945641764 Bytes)

    Великая красота / La Grande Bellezza / The Great Beauty (2013) BDRip 720p от GORESEWAGE | Лицензия торрент скачать бесплатно
    загрузка...
    Рейтинг →
     (голосов: 1, оценка 3/5, голосовать можно 1 раз )

    Другие торренты по теме:

  • Великая красота / The Great Beauty / La grande bellezza (2013) HDRip | P скачать через торрент бесплатно
  • Великая красота / The Great Beauty / La grande bellezza (2013) BDRip 720p | P торрент скачать бесплатно
  • Великая красота / The Great Beauty / La grande bellezza (2013) BDRip 720p от CINEMANIA | НТВ торрент скачать бесплатно
  • Великая красота / The Great Beauty / La grande bellezza (2013) BDRip 1080p от CINEMANIA | НТВ торрент скачать бесплатно
  • Великая красота / The Great Beauty / La grande bellezza (2013) HDRip-AVC от New-Team | P скачать через торрент бесплатно
  • Великая красота / The Great Beauty / La grande bellezza (2013) BDRip 720p | Лицензия скачать через торрент бесплатно
  • Великая красота / The Great Beauty / La grande bellezza (2013) HDRip | Лицензия скачать через торрент бесплатно
  • Великая красота / The Great Beauty / La grande bellezza (2013) HDRip от Scarabey | Лицензия скачать через торрент бесплатно


    • Комментарии (0):

      Информация

      Информация

        Посетители, находящиеся в группе Гости, не могут оставлять комментарии в данной новости.

        ↓ Меню



        ↓ Опрос

        А Вы добавили сайт в закладки?
        Да
        Не


        Top 10 за неделю (Фильмы)