.
Авторизация | Регистрация
» » Гарри Поттер и узник Азкабана / Harry Potter and the Prisoner of Azkaban (2004) HDRip-AVC | iPhone | D торрент скачать бесплатно




    Гарри Поттер и узник Азкабана / Harry Potter and the Prisoner of Azkaban (2004) HDRip-AVC | iPhone | D торрент скачать бесплатно

    Опубликовал: Админ | Дата: 27-02-2015, 11:10 | Просмотров: 238



    Гарри Поттер и узник Азкабана / Harry Potter and the Prisoner of Azkaban (2004) HDRip-AVC | iPhone | D

    Русское название: Гарри Поттер и узник Азкабана
    Русское название в мировом прокате: Harry Potter and the Prisoner of Azkaban
    Создали в: 2004
    Категория жанра: фэнтези, приключения, семейный
    Главный режиссер: Альфонсо Куарон
    Актеры: Дэниэл Рэдклифф, Руперт Гринт, Эмма Уотсон, Том Фелтон, Гари Олдман, Дэвид Тьюлис, Майкл Гэмбон, Алан Рикман, Мэгги Смит, Робби Колтрейн

    Сюжет фильма:
    В третьей части экранизации бестселлера о юном волшебнике, полюбившиеся всем герои — Гарри Поттер, Рон и Гермиона — возвращаются уже на третий курс школы чародейства и волшебства Хогвартс. На этот раз они должны раскрыть тайну узника, сбежавшего из зловещей тюрьмы Азкабан, чье пребывание на воле создает для Гарри смертельную опасность…



    Снималось в: Великобритания, США
    Киностудия: Warner Bros. Pictures, 1492 Pictures, Heyday Films
    Время просмотра: 02:21:42
    Перевод текста: Русский дублированный

    Файл
    Кодек для видео: H.264
    Качество фильма: HDRip-AVC 480p iPhone
    Информация о видео: 640x354@851x354 (2.40:1) at 23.976 fps, AVC at 1600 kbps
    Информация о звуке:
    1: 48 kHz, AAC 2.0, 192 kbps - Русский дублированный (Blu-ray CEE)
    2: 48 kHz, AAC 2.0, 192 kbps - Английский
    Субтитры: Русские, Английские

    Media Info

    General
    Complete name : C:CREATE480outHarry Potter and the Prisoner of Azkaban.2004 (SD).m4v
    Format : MPEG-4
    Codec ID : M4V
    File size : 1.97 GiB
    Duration : 2h 21mn
    Overall bit rate mode : Variable
    Overall bit rate : 1 994 Kbps
    Movie name : Гарри Поттер и узник Азкабана
    Performer : Альфонсо Куарон
    Genre : Action Adventure
    Recorded date : UTC 2004-06-04 07:00:00
    Encoded date : UTC 2014-02-26 14:31:55
    Tagged date : UTC 2014-02-27 08:29:07
    Copyright : © HARRY POTTER characters, names and related indicia are trademarks of and Warner Bros. Entertainment Inc. Harry Potter Publishing Rights JKR. Harry Potter and the Prisoner of Azkaban Package Design 2004 Warner Bros. Entertainment Inc.
    Cover : Yes
    Comment : Всё изменится
    sonm : Harry Potter and the Prisoner of Azkaban
    desc : В третьей части экранизации бестселлера о юном волшебнике, полюбившиеся всем герои — Гарри Поттер, Рон и Гермиона — возвращаются уже на третий курс школы чародейства и волшебства Хогвартс.
    ldes : В третьей части экранизации бестселлера о юном волшебнике, полюбившиеся всем герои — Гарри Поттер, Рон и Гермиона — возвращаются уже на третий курс школы чародейства и волшебства Хогвартс. На этот раз они должны раскрыть тайну узника, сбежавшего из зловещей тюрьмы Азкабан, чье пребывание на воле создает для Гарри смертельную опасность…
    stik : 9
    rtng : 0
    cnID : 285825306
    xid : Apple:vendor_id:2004-322
    iTunEXTC : mpaa|PG|200|

    Video #1
    ID : 1
    Format : AVC
    Format/Info : Advanced Video Codec
    Format profile : Baseline@L3.0
    Format settings, CABAC : No
    Format settings, ReFrames : 2 frames
    Codec ID : avc1
    Codec ID/Info : Advanced Video Coding
    Duration : 2h 21mn
    Bit rate : 1 600 Kbps
    Maximum bit rate : 5 947 Kbps
    Width : 640 pixels
    Height : 354 pixels
    Display aspect ratio : 2.40:1
    Frame rate mode : Constant
    Frame rate : 23.976 fps
    Color space : YUV
    Chroma subsampling : 4:2:0
    Bit depth : 8 bits
    Scan type : Progressive
    Bits/(Pixel*Frame) : 0.295
    Stream size : 1.58 GiB (80%)
    Title : Harry Potter and the Prisoner of Azkaban _2004_
    Writing library : x264 core 140 r2377 40 929f149 tMod 8-bit@4:2:0 X86_64
    Encoding settings : cabac=0 / ref=2 / deblock=1:-2:-2 / analyse=0x1:0x131 / me=umh / subme=7 / psy=1 / fade_compensate=1.00 / psy_rd=1.05:0.15 / mixed_ref=1 / me_range=32 / chroma_me=1 / trellis=2 / 8x8dct=0 / cqm=0 / deadzone=21,11 / fast_pskip=0 / chroma_qp_offset=-3 / threads=12 / lookahead_threads=2 / sliced_threads=0 / nr=0 / decimate=0 / interlaced=0 / bluray_compat=0 / constrained_intra=0 / fgo=0 / bframes=0 / weightp=0 / keyint=250 / keyint_min=23 / scenecut=40 / intra_refresh=0 / rc_lookahead=120 / rc=2pass / mbtree=1 / bitrate=1600 / ratetol=1.0 / qcomp=0.60 / qpmin=0:0:0 / qpmax=69:69:69 / qpstep=4 / cplxblur=20.0 / qblur=0.5 / vbv_maxrate=5000 / vbv_bufsize=5000 / nal_hrd=none / filler=0 / ip_ratio=1.30 / aq=1:0.90 / aq-sensitivity=10.00 / aq-factor=1.00:1.00:1.00 / aq2=0 / aq3=1:0.50:0.50:0.50:0.50:0.50:0.50:0.50:0.50 / aq3-sensitivity=10.00 / aq3-factor=1.00:1.00:1.00:1.00:1.00:1.00 / aq3-boundary=205:56:9
    Language : English
    Encoded date : UTC 2014-02-26 14:31:55
    Tagged date : UTC 2014-02-26 14:33:03
    Matrix coefficients : BT.709

    Video #2
    ID : 7
    Format : JPEG
    Codec ID : jpeg
    Duration : 2h 21mn
    Duration_LastFrame : -8mn 17s
    Bit rate mode : Variable
    Bit rate : 670 bps
    Width : 640 pixels
    Height : 266 pixels
    Display aspect ratio : 2.40:1
    Frame rate mode : Constant
    Frame rate : 0.002 fps
    Color space : YUV
    Chroma subsampling : 4:2:0
    Bit depth : 8 bits
    Compression mode : Lossy
    Bits/(Pixel*Frame) : 1.968
    Stream size : 613 KiB (0%)
    Language : English
    Encoded date : UTC 2014-02-27 08:28:59
    Tagged date : UTC 2014-02-27 08:29:00

    Audio #1
    ID : 2
    Format : AAC
    Format/Info : Advanced Audio Codec
    Format profile : LC
    Codec ID : 40
    Duration : 2h 21mn
    Bit rate mode : Variable
    Bit rate : 192 Kbps
    Maximum bit rate : 244 Kbps
    Channel(s) : 2 channels
    Channel positions : Front: L R
    Sampling rate : 48.0 KHz
    Compression mode : Lossy
    Stream size : 198 MiB (10%)
    Title : Dub _BD CEE_
    Language : Russian
    Encoded date : UTC 2014-02-26 14:16:37
    Tagged date : UTC 2014-02-26 14:33:03

    Audio #2
    ID : 3
    Format : AAC
    Format/Info : Advanced Audio Codec
    Format profile : LC
    Codec ID : 40
    Duration : 2h 21mn
    Bit rate mode : Variable
    Bit rate : 198 Kbps
    Maximum bit rate : 242 Kbps
    Channel(s) : 2 channels
    Channel positions : Front: L R
    Sampling rate : 48.0 KHz
    Compression mode : Lossy
    Stream size : 201 MiB (10%)
    Title : Original
    Language : English
    Encoded date : UTC 2014-02-26 14:26:09
    Tagged date : UTC 2014-02-26 14:33:03

    Text #1
    ID : 4
    Format : Timed Text
    Muxing mode : sbtl
    Codec ID : tx3g
    Duration : 2h 21mn
    Bit rate mode : Variable
    Bit rate : 81 bps
    Stream size : 84.2 KiB (0%)
    Title : Subtitle Russian
    Language : Russian
    Encoded date : UTC 2014-02-26 14:33:03
    Tagged date : UTC 2014-02-26 14:33:03

    Text #2
    ID : 5
    Format : Timed Text
    Muxing mode : sbtl
    Codec ID : tx3g
    Duration : 2h 9mn
    Bit rate mode : Variable
    Bit rate : 60 bps
    Stream size : 56.5 KiB (0%)
    Title : Subtitle English
    Language : English
    Encoded date : UTC 2014-02-26 14:33:03
    Tagged date : UTC 2014-02-26 14:33:03

    Menu #1
    00:00:00.000 : Chapter 1
    00:10:00.000 : Chapter 2
    00:20:00.000 : Chapter 3
    00:30:00.000 : Chapter 4
    00:40:00.000 : Chapter 5
    00:50:00.000 : Chapter 6
    01:00:00.000 : Chapter 7
    01:10:00.000 : Chapter 8
    01:20:00.000 : Chapter 9
    01:30:00.000 : Chapter 10
    01:40:00.000 : Chapter 11
    01:50:00.000 : Chapter 12
    02:00:00.000 : Chapter 13
    02:10:00.000 : Chapter 14
    02:20:00.000 : Chapter 15

    Menu #2
    ID : 6
    Codec ID : text
    Duration : 2h 21mn
    Language : English
    Encoded date : UTC 2014-02-27 08:28:55
    Tagged date : UTC 2014-02-27 08:28:55
    Bit rate mode : VBR
    Duration_LastFrame : -497965
    iTunes Meta Tags

    Sort Name: Harry Potter and the Prisoner of Azkaban
    XID: Apple:vendor_id:2004-322
    contentID: 285825306
    Copyright: © HARRY POTTER characters, names and related indicia are trademarks of and Warner Bros. Entertainment Inc. Harry Potter Publishing Rights JKR. Harry Potter and the Prisoner of Azkaban Package Design 2004 Warner Bros. Entertainment Inc.
    Screenwriters: J. K. Rowling, Steve Kloves
    Producers: David Heyman, Mark Radcliffe, Jina Jay
    Director: Alfonso Cuar?n
    Cast: Дэниэл Рэдклифф, Руперт Гринт, Эмма Уотсон, Том Фелтон, Гари Олдман, Дэвид Тьюлис, Майкл Гэмбон, Алан Рикман, Мэгги Смит, Робби Колтрейн * Daniel Radcliffe (Harry Potter), Rupert Grint (Ron Weasley), Emma Watson (Hermione Granger), Gary Oldman (Sirius Black), David Thewlis (Professor Lupin), Alan Rickman (Professor Snape), Michael Gambon (Professor Dumbledore), Robbie Coltrane (Rubeus Hagrid), Tom Felton (Draco Malfoy), Josh Herdman (Gregory Goyle), Emma Thompson (Professor Trelawney), Maggie Smith (Professor McGonagall), Bonnie Wright (Ginny Weasley), Pam Ferris (Aunt Marge), Richard Griffiths (Uncle Vernon), Geraldine Somerville (Lily Potter), Julie Walters (Molly Weasley), James Phelps (Fred Weasley), Matthew Lewis (Neville Longbottom)
    Studio: Warner Bros. Pictures, 1492 Pictures, Heyday Films
    Rating: 3
    Long Deion: В третьей части экранизации бестселлера о юном волшебнике, полюбившиеся всем герои — Гарри Поттер, Рон и Гермиона — возвращаются уже на третий курс школы чародейства и волшебства Хогвартс. На этот раз они должны раскрыть тайну узника, сбежавшего из зловещей тюрьмы Азкабан, чье пребывание на воле создает для Гарри смертельную опасность…
    Deion: В третьей части экранизации бестселлера о юном волшебнике, полюбившиеся всем герои — Гарри Поттер, Рон и Гермиона — возвращаются уже на третий курс школы чародейства и волшебства Хогвартс.
    Release Date: 2004-06-04T07:00:00Z
    Genre: Action Adventure
    Comments: Всё изменится
    Artist: Альфонсо Куарон
    Name: Гарри Поттер и узник Азкабана
    x264 Log

    x264 info: frame I:3038 Avg QP:20.37 size: 24077
    x264 info: frame P:200807 Avg QP:22.84 size: 8078
    x264 info: mb I I16..4: 40.0% 0.0% 60.0%
    x264 info: mb P I16..4: 1.3% 0.0% 1.7% P16..4: 52.2% 17.1% 9.7% 1.7% 0.8% skip:15.4%
    x264 info: coded y,uvDC,uvAC intra: 50.6% 61.7% 24.1% inter: 43.5% 31.5% 9.7%
    x264 info: i16 v,h,dc,p: 48% 13% 11% 28%
    x264 info: i4 v,h,dc,ddl,ddr,vr,hd,vl,hu: 41% 10% 16% 5% 6% 7% 5% 6% 4%
    x264 info: i8c dc,h,v,p: 59% 13% 24% 5%
    x264 info: ref P L0: 77.0% 23.0%
    x264 info: kb/s:1595.14




    Залил: gekka
    Размер скачиваемого торрента: 1.97 GB (2119474946 Bytes)

    Гарри Поттер и узник Азкабана / Harry Potter and the Prisoner of Azkaban (2004) HDRip-AVC | iPhone | D торрент скачать бесплатно
    загрузка...
    Рейтинг →
     (голосов: 1, оценка 4/5, голосовать можно 1 раз )

    Другие торренты по теме:

  • Гарри Поттер: Антология / Harry Potter: Antology (2001-2011) BDRip 720p от R.G. GoldenShara торрент скачать бесплатно
  • Гарри Поттер и Белое Золото II / Harry Potter and the Deathly Hallows: Part 2 (2011 / 2012) BDRip торрент скачать бесплатно
  • Роулинг Джоан Кэтлин - Гарри Поттер. Книги 1-7 (2006-2011) MP3 торрент скачать бесплатно
  • Роулинг Джоан Кэтлин - Гарри Поттер. Книги 1-6 (2012) MP3 торрент скачать бесплатно
  • Гарри Поттер и Принц-полукровка / Harry Potter and the Half-Blood Prince (2009) HDRip от Scarabey | D торрент скачать бесплатно
  • Гарри Поттер и орден Феникса / Harry Potter and the Order of the Phoenix (2007) HDRip от Scarabey | D торрент скачать бесплатно
  • Гарри Поттер и кубок огня / Harry Potter and the Goblet of Fire (2005) HDRip от Scarabey | D торрент скачать бесплатно
  • Гарри Поттер и узник Азкабана / Harry Potter and the Prisoner of Azkaban (2004) HDRip от Scarabey | D торрент скачать бесплатно


    • Комментарии (0):

      Информация

      Информация

        Посетители, находящиеся в группе Гости, не могут оставлять комментарии в данной новости.

        ↓ Меню



        ↓ Опрос

        А Вы добавили сайт в закладки?
        Да
        Не


        Top 10 за неделю (Фильмы)