.
Авторизация | Регистрация
» » Август / August: Osage County (2013) BDRip-AVC | Лицензия торрент скачать бесплатно




    Август / August: Osage County (2013) BDRip-AVC | Лицензия торрент скачать бесплатно

    Опубликовал: Админ | Дата: 27-02-2015, 11:10 | Просмотров: 209



    Детально о кино
    Русское название: Август
    Русское название в мировом прокате: August: Osage County
    Создали в: 2013
    Категория жанра: Драма, экранизация
    Главный режиссер: Джон Уэллс
    Актеры: Мэрил Стрип, Джулия Робертс, Джулианна Николсон, Марго Мартиндейл, Эбигейл Бреслин, Эван МакГрегор, Джульетт Льюис, Дермот Малруни, Сэм Шепард, Бенедикт Камбербэтч

    О Фильме: Смешная до слез и грустная до боли история семьи. После таинственного исчезновения отца, три дочери со своими возлюбленными возвращаются в родной дом, чтобы поддержать мать и разыскать главу семейства.



    Снималось в: США, Jean Doumanian Productions
    Время просмотра: 02:00:49
    Перевод текста: Профессиональный (полное дублирование)

    Файл
    Качество фильма: BDRip-AVC
    Тип видео: MKV
    Информация о видео: MPEG-4 AVC, 2179 Кбит/с, 1036x436 (2.40:1), 24.000 кадр/с, 0.201 Бит/(Пиксели*Кадры)
    Информация о звуке 1: Русский (AC3, 6 ch, 640 Кбит/с)
    Информация о звуке 2: Английский (AC3, 6 ch, 640 Кбит/с)
    Субтитры: Русские, английские
    Навигация по главам: Есть

    MediaInfo:
    Общее
    Уникальный идентификатор : 173640121202101376279827067141526424754 (0x82A1DEF31B582F42997741F126108CB2)
    Полное имя : August.Osage County.(2013) BDRip-AVC.mkv
    Формат : Matroska
    Версия формата : Version 2
    Размер файла : 2,92 Гбайт
    Продолжительность : 2 ч. 0 м.
    Общий поток : 3454 Кбит/сек
    Дата кодирования : UTC 2014-03-07 13:02:11
    Программа кодирования : mkvmerge v5.8.0 (;No Sleep / Pillow;) built on Sep 2 2012 15:37:04
    Библиотека кодирования : libebml v1.2.3 libmatroska v1.3.0

    Видео
    Идентификатор : 1
    Формат : AVC
    Формат/Информация : Advanced Video Codec
    Профиль формата : High@L4.1
    Параметр CABAC формата : Да
    Параметр ReFrames формата : 11 кадров
    Идентификатор кодека : V_MPEG4/ISO/AVC
    Продолжительность : 2 ч. 0 м.
    Битрейт : 2179 Кбит/сек
    Ширина : 1036 пикселей
    Высота : 436 пикселей
    Соотношение сторон : 2,40:1
    Режим частоты кадров : Постоянный
    Частота кадров : 24,000 кадра/сек
    Цветовое пространство : YUV
    Субдискретизация насыщенности : 4:2:0
    Битовая глубина : 8 бит
    Тип развёртки : Прогрессивная
    Бит/(Пиксели*Кадры) : 0.201
    Размер потока : 1,78 Гбайт (61%)
    Библиотека кодирования : x264 core 140 r2377 1ca7bb9
    Настройки программы : cabac=1 / ref=11 / deblock=1:-3:-3 / analyse=0x3:0x113 / me=umh / subme=10 / psy=1 / psy_rd=1.05:0.15 / mixed_ref=1 / me_range=32 / chroma_me=1 / trellis=2 / 8x8dct=1 / cqm=0 / deadzone=21,11 / fast_pskip=0 / chroma_qp_offset=-3 / threads=6 / lookahead_threads=1 / sliced_threads=0 / nr=0 / decimate=0 / interlaced=0 / bluray_compat=0 / constrained_intra=0 / bframes=8 / b_pyramid=2 / b_adapt=2 / b_bias=0 / direct=3 / weightb=1 / open_gop=0 / weightp=2 / keyint=240 / keyint_min=23 / scenecut=40 / intra_refresh=0 / rc=2pass / mbtree=0 / bitrate=2179 / ratetol=2.0 / qcomp=0.70 / qpmin=0 / qpmax=69 / qpstep=4 / cplxblur=20.0 / qblur=0.5 / ip_ratio=1.40 / pb_ratio=1.30 / aq=2:0.90
    Язык : English
    Default : Да
    Forced : Нет

    Аудио #1
    Идентификатор : 2
    Формат : AC-3
    Формат/Информация : Audio Coding 3
    Расширение режима : CM (complete main)
    Параметр Endianness формата : Big
    Идентификатор кодека : A_AC3
    Продолжительность : 2 ч. 0 м.
    Вид битрейта : Постоянный
    Битрейт : 640 Кбит/сек
    Каналы : 6 каналов
    Расположение каналов : Front: L C R, Side: L R, LFE
    Частота : 48,0 КГц
    Битовая глубина : 16 бит
    Метод сжатия : С потерями
    Размер потока : 553 Мбайт (19%)
    Заголовок : Rus | Dub | AC3 | 640 Kbps
    Язык : Russian
    Default : Да
    Forced : Нет

    Аудио #2
    Идентификатор : 3
    Формат : AC-3
    Формат/Информация : Audio Coding 3
    Расширение режима : CM (complete main)
    Параметр Endianness формата : Big
    Идентификатор кодека : A_AC3
    Продолжительность : 2 ч. 0 м.
    Вид битрейта : Постоянный
    Битрейт : 640 Кбит/сек
    Каналы : 6 каналов
    Расположение каналов : Front: L C R, Side: L R, LFE
    Частота : 48,0 КГц
    Битовая глубина : 16 бит
    Метод сжатия : С потерями
    Размер потока : 553 Мбайт (19%)
    Заголовок : Eng | AC3 | 640 Kbps
    Язык : English
    Default : Нет
    Forced : Нет

    Текст #1
    Идентификатор : 4
    Формат : UTF-8
    Идентификатор кодека : S_TEXT/UTF8
    Идентификатор кодека/Информация : UTF-8 Plain Text
    Заголовок : Rus
    Язык : Russian
    Default : Нет
    Forced : Нет

    Текст #2
    Идентификатор : 5
    Формат : UTF-8
    Идентификатор кодека : S_TEXT/UTF8
    Идентификатор кодека/Информация : UTF-8 Plain Text
    Заголовок : Eng
    Язык : English
    Default : Нет
    Forced : Нет

    Меню
    00:00:00.000 : en:Chapter 01
    00:07:14.833 : en:Chapter 02
    00:13:55.583 : en:Chapter 03
    00:25:15.833 : en:Chapter 04
    00:33:02.166 : en:Chapter 05
    00:40:18.166 : en:Chapter 06
    00:47:25.250 : en:Chapter 07
    00:58:19.416 : en:Chapter 08
    01:08:45.625 : en:Chapter 09
    01:18:35.833 : en:Chapter 10
    01:29:46.125 : en:Chapter 11
    01:38:34.541 : en:Chapter 12
    01:44:39.458 : en:Chapter 13
    01:49:44.666 : en:Chapter 14
    01:55:27.833 : en:Chapter 15

    Скриншоты для ознакомления:


    Релиз подготовил:
    Размер скачиваемого торрента: 2.92 GB (3130058330 Bytes)

    Август / August: Osage County (2013) BDRip-AVC | Лицензия торрент скачать бесплатно
    загрузка...
    Рейтинг →
     (голосов: 1, оценка 4/5, голосовать можно 1 раз )

    Другие торренты по теме:

  • Римская империя: Август / Август - первый император / Imperium: Augustus (2003) DVDRip от Sheikn торрент скачать бесплатно
  • Август / August (2008) DVDRip торрент скачать бесплатно
  • Август Раш / August Rush (2007) BDRip 1080p от FREEISLAND торрент скачать бесплатно
  • Август - Дискография (1983-2012) MP3 торрент скачать бесплатно
  • Chip №8 Россия (август) (2013) PDF торрент скачать бесплатно
  • Maxim №8 Украина (август 2013) PDF торрент скачать бесплатно
  • Мир фантастики №8 (август) (2013) PDF торрент скачать бесплатно
  • Игромания №8 (август 2013) PDF торрент скачать бесплатно


    • Комментарии (0):

      Информация

      Информация

        Посетители, находящиеся в группе Гости, не могут оставлять комментарии в данной новости.

        ↓ Меню



        ↓ Опрос

        А Вы добавили сайт в закладки?
        Да
        Не


        Top 10 за неделю (Фильмы)