.
Авторизация | Регистрация
Хочешь лучшие торренты? Добавь свой email!
Добавить
» » Молода и прекрасна / Jeune jolie (2013) HDRip-AVC | iPhone | D торрент скачать бесплатно




    Молода и прекрасна / Jeune jolie (2013) HDRip-AVC | iPhone | D торрент скачать бесплатно

    Опубликовал: Админ | Дата: 27-02-2015, 11:10 | Просмотров: 207



    Молода и прекрасна / Jeune jolie (2013) HDRip-AVC | iPhone | D

    Русское название: Молода и прекрасна
    Русское название в мировом прокате: Jeune jolie
    Создали в: 2013
    Категория жанра: драма, мелодрама
    Главный режиссер: Франсуа Озон
    Актеры: Марина Вакт, Жеральдин Пайя, Фредерик Пьеро, Шарлотта Рэмплинг, Фантен Рава, Йохан Лейзен, Натали Ришар, Джедже Апали, Люка Призор, Лорен Дельбе

    Сюжет фильма:
    Семнадцатилетняя Изабель погружается в бездонный мир любви, в поиски себя. Не столько из-за денег, сколько ради удовольствия, она встречается с немолодыми клиентами в гостиничных номерах. Близкие Изабель не подозревают, чем одержима умная и тонкая девушка. Но однажды умирает один из ее постоянных клиентов...



    Снималось в: Франция
    Киностудия: Canal , Cine, Cofimage 24, Cofinova 9
    Время просмотра: 01:33:20
    Перевод текста: Русский дублированный


    Файл
    Кодек для видео: H.264
    Качество фильма: HDRip-AVC 480p | iPhone
    Информация о видео: 640x460@852x460 (1.85:1) at 23.976 fps, AVC at 1800 kbps
    Информация о звуке:
    1: ААС 2.0 138 kbps - Русский дублированный
    2: ААС 2.0 129 kbps - Французский
    Субтитры: Английский

    MI

    General
    Complete name : C:CREATE480outJeune and jolie.2013 (SD).m4v
    Format : MPEG-4
    Codec ID : M4V
    File size : 1.36 GiB
    Duration : 1h 33mn
    Overall bit rate mode : Variable
    Overall bit rate : 2 080 Kbps
    Movie name : Молода и прекрасна
    Performer : Francois Ozon
    Genre : Drama
    Recorded date : UTC 2013-05-16 08:00:00
    Encoded date : UTC 2014-03-07 15:00:24
    Tagged date : UTC 2014-03-07 15:21:41
    Copyright : Canal , Cine, Cofimage 24, Cofinova 9
    Cover : Yes
    sonm : Jeune Jolie
    desc : Семнадцатилетняя Изабель погружается в бездонный мир любви, в поиски себя. Не столько из-за денег, сколько ради удовольствия, она встречается с немолодыми клиентами в гостиничных номерах.
    ldes : Семнадцатилетняя Изабель погружается в бездонный мир любви, в поиски себя. Не столько из-за денег, сколько ради удовольствия, она встречается с немолодыми клиентами в гостиничных номерах. Близкие Изабель не подозревают, чем одержима умная и тонкая девушка. Но однажды умирает один из ее постоянных клиентов…
    stik : 9
    rtng : 0
    cnID : 743392
    xid : Apple:vendor_id:2013-743392
    iTunEXTC : fr-movie|-18|400|

    Video #1
    ID : 1
    Format : AVC
    Format/Info : Advanced Video Codec
    Format profile : Baseline@L3.0
    Format settings, CABAC : No
    Format settings, ReFrames : 2 frames
    Codec ID : avc1
    Codec ID/Info : Advanced Video Coding
    Duration : 1h 33mn
    Bit rate : 1 800 Kbps
    Maximum bit rate : 6 324 Kbps
    Width : 640 pixels
    Height : 460 pixels
    Display aspect ratio : 1.85:1
    Frame rate mode : Constant
    Frame rate : 23.976 fps
    Color space : YUV
    Chroma subsampling : 4:2:0
    Bit depth : 8 bits
    Scan type : Progressive
    Bits/(Pixel*Frame) : 0.255
    Stream size : 1.17 GiB (86%)
    Title : Jeune _ jolie _2013_
    Writing library : x264 core 140 r2377 40 929f149 tMod 8-bit@4:2:0 X86_64
    Encoding settings : cabac=0 / ref=2 / deblock=1:-2:-2 / analyse=0x1:0x131 / me=umh / subme=7 / psy=1 / fade_compensate=1.00 / psy_rd=1.00:0.15 / mixed_ref=1 / me_range=32 / chroma_me=1 / trellis=2 / 8x8dct=0 / cqm=0 / deadzone=21,11 / fast_pskip=0 / chroma_qp_offset=-3 / threads=12 / lookahead_threads=2 / sliced_threads=0 / nr=0 / decimate=0 / interlaced=0 / bluray_compat=0 / constrained_intra=0 / fgo=0 / bframes=0 / weightp=0 / keyint=250 / keyint_min=23 / scenecut=40 / intra_refresh=0 / rc_lookahead=96 / rc=2pass / mbtree=1 / bitrate=1800 / ratetol=1.0 / qcomp=0.70 / qpmin=0:0:0 / qpmax=69:69:69 / qpstep=4 / cplxblur=20.0 / qblur=0.5 / vbv_maxrate=5000 / vbv_bufsize=5000 / nal_hrd=none / filler=0 / ip_ratio=1.35 / aq=4:0.90 / aq-sensitivity=10.00 / aq-factor=1.00:1.00:1.00 / aq2=0 / aq3=0
    Language : French
    Encoded date : UTC 2014-03-07 15:00:24
    Tagged date : UTC 2014-03-07 15:00:48
    Matrix coefficients : BT.709

    Video #2
    ID : 6
    Format : JPEG
    Codec ID : jpeg
    Duration : 1h 33mn
    Duration_LastFrame : -1mn 39s
    Bit rate mode : Variable
    Bit rate : 1 050 bps
    Width : 640 pixels
    Height : 345 pixels
    Display aspect ratio : 1.85:1
    Frame rate mode : Constant
    Frame rate : 0.003 fps
    Color space : YUV
    Chroma subsampling : 4:2:0
    Bit depth : 8 bits
    Compression mode : Lossy
    Bits/(Pixel*Frame) : 1.585
    Stream size : 812 KiB (0%)
    Language : French
    Encoded date : UTC 2014-03-07 15:21:37
    Tagged date : UTC 2014-03-07 15:21:37

    Audio #1
    ID : 2
    Format : AAC
    Format/Info : Advanced Audio Codec
    Format profile : LC
    Codec ID : 40
    Duration : 1h 33mn
    Bit rate mode : Variable
    Bit rate : 139 Kbps
    Maximum bit rate : 170 Kbps
    Channel(s) : 2 channels
    Channel positions : Front: L R
    Sampling rate : 48.0 KHz
    Compression mode : Lossy
    Stream size : 92.7 MiB (7%)
    Title : Dub
    Language : Russian
    Encoded date : UTC 2014-03-07 14:56:59
    Tagged date : UTC 2014-03-07 15:00:48

    Audio #2
    ID : 3
    Format : AAC
    Format/Info : Advanced Audio Codec
    Format profile : LC
    Codec ID : 40
    Duration : 1h 33mn
    Bit rate mode : Variable
    Bit rate : 132 Kbps
    Maximum bit rate : 169 Kbps
    Channel(s) : 2 channels
    Channel positions : Front: L R
    Sampling rate : 48.0 KHz
    Compression mode : Lossy
    Stream size : 88.8 MiB (6%)
    Title : Original
    Language : French
    Encoded date : UTC 2014-03-07 14:58:42
    Tagged date : UTC 2014-03-07 15:00:48

    Text
    ID : 4
    Format : Timed Text
    Muxing mode : sbtl
    Codec ID : tx3g
    Duration : 1h 33mn
    Bit rate mode : Variable
    Bit rate : 51 bps
    Stream size : 34.8 KiB (0%)
    Title : Subtitle English
    Language : English
    Encoded date : UTC 2014-03-07 15:00:48
    Tagged date : UTC 2014-03-07 15:00:48

    Menu #1
    00:00:00.000 : Chapter 1
    00:05:00.000 : Chapter 2
    00:10:00.000 : Chapter 3
    00:15:00.000 : Chapter 4
    00:20:00.000 : Chapter 5
    00:25:00.000 : Chapter 6
    00:30:00.000 : Chapter 7
    00:35:00.000 : Chapter 8
    00:40:00.000 : Chapter 9
    00:45:00.000 : Chapter 10
    00:50:00.000 : Chapter 11
    00:55:00.000 : Chapter 12
    01:00:00.000 : Chapter 13
    01:05:00.000 : Chapter 14
    01:10:00.000 : Chapter 15
    01:15:00.000 : Chapter 16
    01:20:00.000 : Chapter 17
    01:25:00.000 : Chapter 18
    01:30:00.000 : Chapter 19

    Menu #2
    ID : 5
    Codec ID : text
    Duration : 1h 33mn
    Language : English
    Encoded date : UTC 2014-03-07 15:21:32
    Tagged date : UTC 2014-03-07 15:21:32
    Bit rate mode : VBR
    Duration_LastFrame : -99280

    iTunes Meta Tags

    Sort Name: Jeune Jolie
    XID: Apple:vendor_id:2013-743392
    contentID: 743392
    Copyright: Canal , Cine, Cofimage 24, Cofinova 9
    Screenwriters: Франсуа Озон
    Producers: Эрик Альтмайер, Николас Альтмайер
    Director: Франсуа Озон
    Cast: Марина Вакт, Жеральдин Пайя, Фредерик Пьеро, Шарлотта Рэмплинг, Фантен Рава, Йохан Лейзен, Натали Ришар, Джедже Апали, Люка Призор, Лорен Дельбек // Marine Vacth (Isabelle), Geraldine Pailhas (Sylvie), Charlotte Rampling (Alice), Frederic Pierrot (Patrick), Nathalie Richard (Vero), Johan Leysen (Georges), Fantin Ravat (Victor), Laurent Delbecque (Alex)
    Studio: Canal , Cine, Cofimage 24, Cofinova 9
    Rating: 64
    Long Deion: Семнадцатилетняя Изабель погружается в бездонный мир любви, в поиски себя. Не столько из-за денег, сколько ради удовольствия, она встречается с немолодыми клиентами в гостиничных номерах. Близкие Изабель не подозревают, чем одержима умная и тонкая девушка. Но однажды умирает один из ее постоянных клиентов…
    Deion: Семнадцатилетняя Изабель погружается в бездонный мир любви, в поиски себя. Не столько из-за денег, сколько ради удовольствия, она встречается с немолодыми клиентами в гостиничных номерах.
    Release Date: 2013-05-16T08:00:00Z
    Genre: Drama
    Artist: Francois Ozon
    Name: Молода и прекрасна
    x264

    x264 info: frame I:1778 Avg QP:18.19 size: 25953
    x264 info: frame P:132505 Avg QP:20.34 size: 9157
    x264 info: mb I I16..4: 38.4% 0.0% 61.6%
    x264 info: mb P I16..4: 1.1% 0.0% 1.0% P16..4: 51.6% 16.7% 9.2% 1.3% 0.7% skip:18.5%
    x264 info: coded y,uvDC,uvAC intra: 54.0% 63.5% 39.0% inter: 39.1% 31.1% 11.9%
    x264 info: i16 v,h,dc,p: 53% 10% 8% 29%
    x264 info: i4 v,h,dc,ddl,ddr,vr,hd,vl,hu: 32% 12% 16% 6% 8% 9% 6% 7% 4%
    x264 info: i8c dc,h,v,p: 55% 11% 26% 8%
    x264 info: ref P L0: 76.0% 24.0%
    x264 info: kb/s:1799.04




    Залил: gekka
    Размер скачиваемого торрента: 1.36 GB (1456274328 Bytes)

    Молода и прекрасна / Jeune jolie (2013) HDRip-AVC | iPhone | D торрент скачать бесплатно
    загрузка...
    Рейтинг →
     (голосов: 1, оценка 5/5, голосовать можно 1 раз )

    Другие торренты по теме:

  • Молода и прекрасна / Jeune jolie (2013) WEBRip скачать через торрент бесплатно
  • Молода и прекрасна / Jeune jolie (2013) DVDRip скачать через торрент бесплатно
  • Молода и прекрасна / Jeune jolie (2013) BDRip 720p скачать через торрент бесплатно
  • Молода и прекрасна / Jeune jolie (2013) HDRip скачать через торрент бесплатно
  • Молода и прекрасна / Jeune jolie (2013) HDRip от Scarabey | D
  • Молода и прекрасна / Jeune jolie (2013) BDRip 720p | Лицензия скачать через торрент бесплатно
  • Молода и прекрасна / Jeune jolie (2013) HDRip | Лицензия скачать через торрент бесплатно
  • Молода и прекрасна / Jeune jolie (2013) DVD5 R5 от New-team | D | лицензия скачать через торрент бесплатно


    • Комментарии (0):

      Информация

      Информация

        Посетители, находящиеся в группе Гости, не могут оставлять комментарии в данной новости.

        ↓ Меню



        ↓ Опрос

        А Вы добавили сайт в закладки?
        Да
        Не


        Top 10 за месяц (Фильмы)