.
Авторизация | Регистрация
» » Лекарь: Ученик Авиценны / The Physician (2013) WEB-DLRip-AVC | iTunes торрент скачать бесплатно




    Лекарь: Ученик Авиценны / The Physician (2013) WEB-DLRip-AVC | iTunes торрент скачать бесплатно

    Опубликовал: Админ | Дата: 27-02-2015, 11:10 | Просмотров: 331



    Наименование: Лекарь: Ученик Авиценны
    Оригинальное наименование: The Physician
    Создали в: 2013
    Произведено: Германия
    Категория: Драма, Приключения
    Время просмотра: 02:34:41
    Тип перевода: Дублированное iTunes

    Главный режиссер: Филипп Штёльцль

    В главных ролях: Том Пэйн, Бен Кингсли, Эмма Ригби, Стеллан Скарсгард, Оливье Мартинес, Элиас ЭмБарек, Майкл Джибсон, Стэнли Таунсенд, Майкл Маркус Морган, Адам Томас Райт

    Сюжет:
    Англия, XI век. Мать десятилетнего Роба Коула умирает в страшных мучениях: никто не знает ни природы её болезни, ни лекарства против неё. Маленький Роб, потрясенный до глубины души, во что бы то ни стало стремится разгадать эту тайну.
    Ему суждено пройти долгий путь, от Англии до Персии, его учителями становятся сначала обыкновенный шарлатан Барбер, а потом — великий лекарь Авиценна. Мудрый учитель видит в Робе необыкновенный талант к медицине, но советует ему не спешить делать вещи, которые не соответствуют веку. Но Роб ни перед чем не останавливается в своем желании научиться спасать людей от смерти, и над его собственной жизнью нависает угроза, ведь он дважды пошел против предрассудков: использовал для научных исследований тело человека и полюбил женщину, отданную в жены другому.




    Качество фильма: WEB-DLRip-AVC
    Информация о видео: MPEG-4 AVC/H.264, 1024 x 432 (2.370) at 24.000 fps , ~ 1634 Кбит/сек: 0.154 Bits/Pixel
    Aудио: AC3 5.1, 384 Кбит/сек, 48,0 КГц, 16 бит
    Семпл

    MediaInfo:
    Формат : Matroska
    Версия формата : Version 2
    Размер файла : 2,18 Гбайт
    Продолжительность : 2 ч. 34 м.
    Общий поток : 2020 Кбит/сек
    Название фильма : Lekar.Uchenik.Aviacenna.2014.D.WEB-DLRip.2.18GB.NNM-CLUB.GIU
    Дата кодирования : UTC 2014-03-07 11:37:16
    Программа кодирования : mkvmerge v2.9.9 (;Tutu;) built on Nov 25 2009 21:13:32
    Библиотека кодирования : libebml v0.7.9 libmatroska v0.8.1

    Видео
    Идентификатор : 1
    Формат : AVC
    Формат/Информация : Advanced Video Codec
    Профиль формата : High@L4.1
    Параметр CABAC формата : Да
    Параметр ReFrames формата : 12 кадров
    Идентификатор кодека : V_MPEG4/ISO/AVC
    Продолжительность : 2 ч. 34 м.
    Битрейт : 1634 Кбит/сек
    Ширина : 1024 пикселя
    Высота : 432 пикселя
    Соотношение сторон : 2,40:1
    Режим частоты кадров : Постоянный
    Частота кадров : 24,000 кадра/сек
    Цветовое пространство : YUV
    Субдискретизация насыщенности : 4:2:0
    Битовая глубина : 8 бит
    Тип развёртки : Прогрессивная
    Бит/(Пиксели*Кадры) : 0.154
    Размер потока : 1,72 Гбайт (79%)
    Заголовок :
    Библиотека кодирования : x264 core 133 r2334 a3ac64b
    Настройки программы : cabac=1 / ref=12 / deblock=1:-3:-3 / analyse=0x3:0x113 / me=umh / subme=11 / psy=1 / psy_rd=1.00:0.25 / mixed_ref=0 / me_range=32 / chroma_me=1 / trellis=2 / 8x8dct=1 / cqm=0 / deadzone=21,11 / fast_pskip=1 / chroma_qp_offset=-4 / threads=12 / lookahead_threads=1 / sliced_threads=0 / nr=0 / decimate=0 / interlaced=0 / bluray_compat=0 / constrained_intra=0 / bframes=8 / b_pyramid=2 / b_adapt=1 / b_bias=0 / direct=3 / weightb=1 / open_gop=0 / weightp=2 / keyint=240 / keyint_min=24 / scenecut=40 / intra_refresh=0 / rc_lookahead=40 / rc=2pass / mbtree=1 / bitrate=1634 / ratetol=1.0 / qcomp=0.70 / qpmin=0 / qpmax=69 / qpstep=4 / cplxblur=20.0 / qblur=0.5 / vbv_maxrate=62500 / vbv_bufsize=78125 / nal_hrd=none / ip_ratio=1.40 / aq=1:1.00
    Язык : Russian
    Default : Нет
    Forced : Нет

    Аудио
    Идентификатор : 2
    Формат : AC-3
    Формат/Информация : Audio Coding 3
    Расширение режима : CM (complete main)
    Параметр Endianness формата : Big
    Идентификатор кодека : A_AC3
    Продолжительность : 2 ч. 34 м.
    Вид битрейта : Постоянный
    Битрейт : 384 Кбит/сек
    Каналы : 6 каналов
    Расположение каналов : Front: L C R, Side: L R, LFE
    Частота : 48,0 КГц
    Битовая глубина : 16 бит
    Метод сжатия : С потерями
    Размер потока : 425 Мбайт (19%)
    Заголовок : AC3.384Kbps (6ch) Russian (Дубляж iTunes)
    Язык : Russian
    Default : Нет
    Forced : Нет

    Меню
    00:00:00.000 : en:Р“Рава 1
    00:10:56.000 : en:Р“Рава 2
    00:15:59.000 : en:Р“Рава 3
    00:21:00.000 : en:Р“Рава 4
    00:26:01.000 : en:Р“Рава 5
    00:31:03.000 : en:Р“Рава 6
    00:36:05.000 : en:Р“Рава 7
    00:41:43.000 : en:Р“Рава 8
    00:46:49.000 : en:Р“Рава 9
    00:51:53.000 : en:Р“Рава 10
    00:56:53.000 : en:Р“Рава 11
    01:01:54.000 : en:Р“Рава 12
    01:06:56.000 : en:Р“Рава 13
    01:12:06.000 : en:Р“Рава 14
    01:17:11.000 : en:Р“Рава 15
    01:22:13.000 : en:Р“Рава 16
    01:27:14.000 : en:Р“Рава 17
    01:32:14.000 : en:Р“Рава 18
    01:37:16.000 : en:Р“Рава 19
    01:42:16.000 : en:Р“Рава 20
    01:47:43.000 : en:Р“Рава 21
    01:52:48.000 : en:Р“Рава 22
    01:57:49.000 : en:Р“Рава 23
    02:02:54.000 : en:Р“Рава 24
    02:08:29.000 : en:Р“Рава 25
    02:13:30.000 : en:Р“Рава 26
    02:18:34.000 : en:Р“Рава 27
    02:23:35.000 : en:Р“Рава 28
    02:28:49.000 : en:Р“Рава 29
    02:33:09.000 : en:Р“Рава 30
    Скриншоты для ознакомления

    Размер скачиваемого торрента: 2.18 GB (2343130655 Bytes)

    Лекарь: Ученик Авиценны / The Physician (2013) WEB-DLRip-AVC | iTunes торрент скачать бесплатно
    загрузка...
    Рейтинг →
     (голосов: 1, оценка 5/5, голосовать можно 1 раз )

    Другие торренты по теме:

  • Лекарь: Ученик Авиценны (2013) торрент скачать бесплатно
  • OST - Лекарь: Ученик Авиценны / The Physician / Der Medicus (2014) MP3 скачать через торрент бесплатно
  • Лекарь: Ученик Авиценны / The Physician (2013) TS торрент скачать бесплатно
  • Лекарь: Ученик Авиценны / The Physician (2013) WEB-DLRip | iTunes торрент скачать бесплатно
  • Лекарь: Ученик Авиценны / The Physician (2013) WEB-DL 720p | iTunes торрент скачать бесплатно
  • Лекарь: Ученик Авиценны / The Physician (2013) WEB-DLRip от Scarabey | D | iTunes торрент скачать бесплатно
  • Лекарь: Ученик Авиценны / The Physician (2013) BDRip 720p | Лицензия скачать через торрент бесплатно
  • Лекарь: Ученик Авиценны / The Physician (2013) BDRip от New-Team | D | лицензия скачать через торрент бесплатно


    • Комментарии (0):

      Информация

      Информация

        Посетители, находящиеся в группе Гости, не могут оставлять комментарии в данной новости.

        ↓ Меню



        ↓ Опрос

        А Вы добавили сайт в закладки?
        Да
        Не


        Top 10 за неделю (Фильмы)