.
Авторизация | Регистрация
» » Огненная буря / Firestorm / Fung bou (2013) BDRip 720p | L2 торрент скачать бесплатно




    Огненная буря / Firestorm / Fung bou (2013) BDRip 720p | L2 торрент скачать бесплатно

    Опубликовал: Админ | Дата: 27-02-2015, 11:10 | Просмотров: 214



    Детально о кино
    Русское название: Огненная буря
    Русское название в мировом прокате: Firestorm / Fung bou
    Создали в: 2013
    Категория жанра: боевик, криминал
    Главный режиссер: Алан Юэнь
    Актеры: Энди Лау, Ху Цзюнь, Ка Танг Лам, Яо Чэнь

    Сюжет фильма: Бронированный инкассаторский автомобиль средь бела дня подвергается атаке со стороны банды преступников. Расследованием преступления занимается инспектор Луи Мин Чит, который руководит спецотрядом. Однако не так то просто схватить вооруженных до зубов головорезов, поэтому Луи решает пойти на сделку с Синг Понгом, обещая освободить его из тюрьмы, если он поможет схватить своих бывших подельников. Помимо этих событий к городу приближается шторм катастрофической силы..



    Снималось в: Гонконг, Китай
    Время просмотра: 01:49:14
    Тип перевода: Любительское (двухголосое) Ольга Гринтиева и Константин Романов

    Файл
    Тип видео: MKV
    Качество фильма: BDRip 720p WiKi
    Информация о видео: 4442 kb/s, 1280x536
    Информация о звуке: Russian: MP3, 192 kb/s (2 ch) / Chinese, Mandarin: AC3, 640 kb/s (6 ch)





    MI

    Format : Matroska
    Format version : Version 4 / Version 2
    File size : 4.51 GiB
    Duration : 1h 49mn
    Overall bit rate : 5 916 Kbps
    Movie name : Jubowo @ WiKi
    Encoded date : UTC 2014-03-07 12:22:56
    Writing application : mkvmerge v6.1.0 (;Old Devil;) built on Mar 4 2013 09:10:42
    Writing library : libebml v1.3.0 libmatroska v1.4.0

    Video
    ID : 1
    Format : AVC
    Format/Info : Advanced Video Codec
    Format profile : High@L4.1
    Format settings, CABAC : Yes
    Format settings, ReFrames : 12 frames
    Codec ID : V_MPEG4/ISO/AVC
    Duration : 1h 49mn
    Bit rate : 4 442 Kbps
    Width : 1 280 pixels
    Height : 536 pixels
    Display aspect ratio : 2.40:1
    Frame rate : 24.000 fps
    Color space : YUV
    Chroma subsampling : 4:2:0
    Bit depth : 8 bits
    Scan type : Progressive
    Bits/(Pixel*Frame) : 0.270
    Stream size : 3.30 GiB (73%)
    Writing library : x264 core 129 r2245 704 36 8e61944 tMod MixAQ 8-bit@4:2:0 X86_64
    Encoding settings : cabac=1 / ref=12 / deblock=1:-3:-3 / analyse=0x3:0x133 / me=umh / subme=11 / psy=1 / fade_compensate=0.00 / psy_rd=1.05:0.10 / mixed_ref=1 / me_range=32 / chroma_me=1 / trellis=2 / 8x8dct=1 / cqm=0 / deadzone=21,11 / fast_pskip=0 / chroma_qp_offset=-3 / threads=18 / lookahead_threads=3 / sliced_threads=0 / nr=0 / decimate=0 / interlaced=0 / bluray_compat=0 / constrained_intra=0 / fgo=0 / bframes=8 / b_pyramid=2 / b_adapt=2 / b_bias=0 / direct=3 / weightb=1 / open_gop=0 / weightp=2 / keyint=250 / keyint_min=24 / scenecut=40 / intra_refresh=0 / rc_lookahead=80 / rc=2pass / mbtree=1 / bitrate=4442 / ratetol=1.0 / qcomp=0.70 / qpmin=0 / qpmax=69 / qpstep=4 / cplxblur=20.0 / qblur=0.5 / ip_ratio=1.40 / aq=3 / aq-strength=0.80 / aq-sensitivity=10.00 / aq-ifactor=1.00 / aq-pfactor=1.00 / aq-bfactor=1.00 / aq2=0
    Language : Chinese
    Default : Yes
    Forced : No
    Matrix coefficients : BT.709-5, BT.1361, IEC 61966-2-4 709, SMPTE RP177

    Audio #1
    ID : 2
    Format : MPEG Audio
    Format version : Version 1
    Format profile : Layer 3
    Codec ID : A_MPEG/L3
    Codec ID/Hint : MP3
    Duration : 1h 49mn
    Bit rate mode : Constant
    Bit rate : 192 Kbps
    Channel(s) : 2 channels
    Sampling rate : 48.0 KHz
    Compression mode : Lossy
    Stream size : 150 MiB (3%)
    Language : Russian
    Default : Yes
    Forced : No

    Audio #2
    ID : 3
    Format : AC-3
    Format/Info : Audio Coding 3
    Mode extension : CM (complete main)
    Format settings, Endianness : Big
    Codec ID : A_AC3
    Duration : 1h 49mn
    Bit rate mode : Constant
    Bit rate : 640 Kbps
    Channel(s) : 6 channels
    Channel positions : Front: L C R, Side: L R, LFE
    Sampling rate : 48.0 KHz
    Bit depth : 16 bits
    Compression mode : Lossy
    Stream size : 500 MiB (11%)
    Title : Cantonese
    Language : Chinese
    Default : No
    Forced : No

    Audio #3
    ID : 4
    Format : AC-3
    Format/Info : Audio Coding 3
    Mode extension : CM (complete main)
    Format settings, Endianness : Big
    Codec ID : A_AC3
    Duration : 1h 49mn
    Bit rate mode : Constant
    Bit rate : 640 Kbps
    Channel(s) : 6 channels
    Channel positions : Front: L C R, Side: L R, LFE
    Sampling rate : 48.0 KHz
    Bit depth : 16 bits
    Compression mode : Lossy
    Stream size : 500 MiB (11%)
    Title : Mandarin
    Language : Chinese
    Default : No
    Forced : No

    Menu
    00:00:00.000 : en:00:00:00.000
    00:10:54.333 : en:00:10:54.333
    00:19:42.416 : en:00:19:42.416
    00:26:17.541 : en:00:26:17.541
    00:34:20.875 : en:00:34:20.875
    00:43:00.875 : en:00:43:00.875
    00:52:22.416 : en:00:52:22.416
    01:01:43.541 : en:01:01:43.541
    01:12:24.625 : en:01:12:24.625
    01:19:08.458 : en:01:19:08.458
    01:31:32.125 : en:01:31:32.125
    01:39:27.083 : en:01:39:27.083
    Скриншоты для ознакомления

    Размер скачиваемого торрента: 4.51 GB (4847156498 Bytes)

    Огненная буря / Firestorm / Fung bou (2013) BDRip 720p | L2 торрент скачать бесплатно
    загрузка...
    Рейтинг →
     (голосов: 1, оценка 5/5, голосовать можно 1 раз )

    Другие торренты по теме:



      Комментарии (0):

      Информация

      Информация

        Посетители, находящиеся в группе Гости, не могут оставлять комментарии в данной новости.

        ↓ Меню



        ↓ Опрос

        А Вы добавили сайт в закладки?
        Да
        Не


        Top 10 за неделю (Фильмы)