.
Авторизация | Регистрация
Хочешь лучшие торренты? Добавь свой email!
Добавить
» » Голодные игры: И вспыхнет пламя / The Hunger Games: Catching Fire (2013) BDRip 1080p от GORESEWAGE | IMAX Edition | iTunes Russia торрент скачать бесплатно




    Голодные игры: И вспыхнет пламя / The Hunger Games: Catching Fire (2013) BDRip 1080p от GORESEWAGE | IMAX Edition | iTunes Russia торрент скачать бесплатно

    Опубликовал: Админ | Дата: 27-02-2015, 11:10 | Просмотров: 210



    Голодные игры: И вспыхнет пламя / The Hunger Games: Catching Fire

    Создали в: 2013
    Снималось в: США
    Категория жанра: фантастика, боевик, триллер, приключения
    Время просмотра: 02:26:14
    Перевод текста: Профессиональный (дублированный) iTunes Russia
    Оригинальная аудиодорожка: English
    Субтитры: Russian (Full), English (Full, SDH), Spanish (Full)
    Киностудия: Color Force, Lionsgate

    Главный режиссёр: Френсис Лоуренс / Francis Lawrence

    Актеры: Дженнифер Лоуренс, Джош Хатчерсон, Сэм Клафлин, Джена Мэлоун, Вуди Харрельсон, Элизабет Бэнкс, Лиам Хемсворт, Дональд Сазерленд, Филип Сеймур Хоффман, Стэнли Туччи и др.

    Сюжет: Сумев выжить на безжалостных Голодных играх, Китнисс Эвердин и Пит Мелларк возвращаются домой. Но теперь они в ещё большей опасности, так как своим отказом играть по правилам на Арене бросили вызов Капитолию. По традиции следующие, юбилейные, Голодные игры должны стать особенными, и в этот раз в них участвуют только победители прошлых лет. Китнисс и Пит вынуждены вновь выйти на Арену, где будут соперничать с сильнейшими. Правила игры меняются. Арена еще опасней, масштаб ещё больше, ставки ещё выше!



    Sample

    Качество фильма: BDRip 1080p (HDWinG)
    Контейнер: MKV
    Информация о видео кодек: MPEG-4 AVC Video
    Информация о звуке кодек: DTS / AC3
    Информация о видео: MPEG-4 AVC Video / 12000 kbps / 1920x1080p / 23,976 fps / 16:9 / High Profile 4.1
    Информация о звуке 1: Russian / AC3 / 5.1 / 48 kHz / 384 kbps / 16-bit | Dub iTunes Russia
    Информация о звуке 2: English / DTS / 5.1 / 48 kHz / 1536 kbps / 24-bit | Original
    Информация о звуке 3: English / AC3 / 2.0 / 48 kHz / 224 kbps / 16-bit | Descriрtion
    Информация о звуке 4: English / AC3 / 2.0 / 48 kHz / 224 kbps / 16-bit | Commentary by director Francis Lawrence producer Nina Jacobson
    Навигация по главам: да

    Screens

    MediaInfo
    C:/GORESEWAGE/The Hunger Games Catching Fire 2013 IMAX Edition BDRip 1080p GORESEWAGE.mkv
    General
    Unique ID : 188216671484212440845418516327478978635 (0x8D99365D83FAD2C7AFC9FA95C429E84B)
    Complete name : C:/GORESEWAGE/The Hunger Games Catching Fire 2013 IMAX Edition BDRip 1080p GORESEWAGE.mkv
    Format : Matroska
    Format version : Version 4 / Version 2
    File size : 14.7 GiB
    Duration : 2h 26mn
    Overall bit rate : 14.3 Mbps
    Movie name : The Hunger Games Catching Fire 2013 IMAX Edition BDRip 1080p GORESEWAGE
    Encoded date : UTC 2014-03-07 07:14:29
    Writing application : mkvmerge v6.8.0 (;Theme for Great Cities;) 64bit built on Mar 2 2014 21:34:26
    Writing library : libebml v1.3.0 libmatroska v1.4.1
    Attachment : Yes
    Video #1
    ID : 1
    Format : AVC
    Format/Info : Advanced Video Codec
    Format profile : High@L4.1
    Format settings, CABAC : Yes
    Format settings, ReFrames : 5 frames
    Codec ID : V_MPEG4/ISO/AVC
    Duration : 2h 26mn
    Bit rate : 12.0 Mbps
    Width : 1 920 pixels
    Height : 1 080 pixels
    Display aspect ratio : 16:9
    Frame rate mode : Constant
    Frame rate : 23.976 fps
    Color space : YUV
    Chroma subsampling : 4:2:0
    Bit depth : 8 bits
    Scan type : Progressive
    Bits/(Pixel*Frame) : 0.241
    Stream size : 12.0 GiB (82%)
    Title : The Hunger Games Catching Fire 2013 IMAX Edition BDRip 1080p GORESEWAGE
    Writing library : x264 core 140 r2377 40 929f149 tMod 8-bit@4:2:0 X86_64
    Encoding settings : cabac=1 / ref=5 / deblock=1:-3:-3 / analyse=0x3:0x113 / me=umh / subme=11 / psy=1 / fade_compensate=0.00 / psy_rd=1.15:0.00 / mixed_ref=1 / me_range=32 / chroma_me=1 / trellis=2 / 8x8dct=1 / cqm=0 / deadzone=21,11 / fast_pskip=0 / chroma_qp_offset=-2 / threads=18 / lookahead_threads=3 / sliced_threads=0 / nr=0 / decimate=0 / interlaced=0 / bluray_compat=0 / constrained_intra=0 / fgo=0 / bframes=8 / b_pyramid=2 / b_adapt=2 / b_bias=0 / direct=3 / weightb=1 / open_gop=0 / weightp=2 / keyint=240 / keyint_min=24 / scenecut=40 / intra_refresh=0 / rc=2pass / mbtree=0 / bitrate=12000 / ratetol=1.0 / qcomp=0.70 / qpmin=0:0:0 / qpmax=69:69:69 / qpstep=4 / cplxblur=20.0 / qblur=0.5 / ip_ratio=1.10 / pb_ratio=1.10 / aq=4:0.95 / aq-sensitivity=10.00 / aq-factor=1.00:1.00:1.00 / aq2=0 / aq3=0
    Language : English
    Default : Yes
    Forced : No
    Audio #2
    ID : 2
    Format : AC-3
    Format/Info : Audio Coding 3
    Mode extension : CM (complete main)
    Format settings, Endianness : Big
    Codec ID : A_AC3
    Duration : 2h 26mn
    Bit rate mode : Constant
    Bit rate : 384 Kbps
    Channel count : 6 channels
    Channel positions : Front: L C R, Side: L R, LFE
    Sampling rate : 48.0 KHz
    Bit depth : 16 bits
    Compression mode : Lossy
    Stream size : 402 MiB (3%)
    Title : Dub iTunes Russia
    Language : Russian
    Default : Yes
    Forced : No
    Audio #3
    ID : 3
    Format : DTS
    Format/Info : Digital Theater Systems
    Mode : 16
    Format settings, Endianness : Big
    Codec ID : A_DTS
    Duration : 2h 26mn
    Bit rate mode : Constant
    Bit rate : 1 509 Kbps
    Channel count : 6 channels
    Channel positions : Front: L C R, Side: L R, LFE
    Sampling rate : 48.0 KHz
    Bit depth : 24 bits
    Compression mode : Lossy
    Stream size : 1.54 GiB (11%)
    Title : Original
    Language : English
    Default : No
    Forced : No
    Audio #4
    ID : 4
    Format : AC-3
    Format/Info : Audio Coding 3
    Format profile : Dolby Digital
    Mode extension : CM (complete main)
    Format settings, Endianness : Big
    Codec ID : A_AC3
    Duration : 2h 26mn
    Bit rate mode : Constant
    Bit rate : 224 Kbps
    Channel count : 2 channels
    Channel positions : Front: L R
    Sampling rate : 48.0 KHz
    Bit depth : 16 bits
    Compression mode : Lossy
    Stream size : 234 MiB (2%)
    Title : Descriрtion
    Language : English
    Default : No
    Forced : No
    Audio #5
    ID : 5
    Format : AC-3
    Format/Info : Audio Coding 3
    Format profile : Dolby Digital
    Mode extension : CM (complete main)
    Format settings, Endianness : Big
    Codec ID : A_AC3
    Duration : 2h 26mn
    Bit rate mode : Constant
    Bit rate : 224 Kbps
    Channel count : 2 channels
    Channel positions : Front: L R
    Sampling rate : 48.0 KHz
    Bit depth : 16 bits
    Compression mode : Lossy
    Stream size : 234 MiB (2%)
    Title : Commentary by director Francis Lawrence producer Nina Jacobson
    Language : English
    Default : No
    Forced : No
    Text #6
    ID : 6
    Format : UTF-8
    Codec ID : S_TEXT/UTF8
    Codec ID/Info : UTF-8 Plain Text
    Title : Full
    Language : Russian
    Default : No
    Forced : No
    Text #7
    ID : 7
    Format : UTF-8
    Codec ID : S_TEXT/UTF8
    Codec ID/Info : UTF-8 Plain Text
    Title : Full
    Language : English
    Default : No
    Forced : No
    Text #8
    ID : 8
    Format : UTF-8
    Codec ID : S_TEXT/UTF8
    Codec ID/Info : UTF-8 Plain Text
    Title : SDH
    Language : English
    Default : No
    Forced : No
    Text #9
    ID : 9
    Format : PGS
    Muxing mode : zlib
    Codec ID : S_HDMV/PGS
    Codec ID/Info : The same subtitle format used on BDs/HD-DVDs
    Title : Full
    Language : Spanish
    Default : No
    Forced : No
    Menu
    00:00:00.000 : en:00:00:00.000
    00:11:24.684 : en:00:11:24.684
    00:16:48.049 : en:00:16:48.049
    00:25:38.078 : en:00:25:38.078
    00:35:51.649 : en:00:35:51.649
    00:44:22.576 : en:00:44:22.576
    00:52:12.921 : en:00:52:12.921
    01:01:11.376 : en:01:01:11.376
    01:08:12.213 : en:01:08:12.213
    01:16:48.938 : en:01:16:48.938
    01:22:39.663 : en:01:22:39.663
    01:29:21.731 : en:01:29:21.731
    01:40:43.913 : en:01:40:43.913
    01:50:47.766 : en:01:50:47.766
    02:02:46.984 : en:02:02:46.984
    02:09:58.958 : en:02:09:58.958

    Размер скачиваемого торрента: 14.65 GB (15732328846 Bytes)

    Голодные игры: И вспыхнет пламя / The Hunger Games: Catching Fire (2013) BDRip 1080p от GORESEWAGE | IMAX Edition | iTunes Russia торрент скачать бесплатно
    загрузка...
    Рейтинг →
     (голосов: 1, оценка 3/5, голосовать можно 1 раз )

    Другие торренты по теме:

  • Голодные игры / The Hunger Games (2012) HDRip
  • Сьюзен Коллинз / Suzanne Collins - Голодные игры (2010-2011) fb2
  • Голодные игры: И вспыхнет пламя / The Hunger Games: Catching Fire (2013) HD 1080p | Трейлер-тизер
  • Голодные игры (2013) SATRip
  • OST - Голодные игры / The Hunger Games (2012) MP3 скачать через торрент бесплатно
  • Пусть говорят - Голодные игры (2013) HDTVRip от MediaClub скачать через торрент бесплатно
  • OST - Голодные игры: И вспыхнет пламя / Hunger Games: Catching Fire (2013) MP3
  • Голодные игры: И вспыхнет пламя / The Hunger Games: Catching Fire (2013) DCPrip | Трейлер


    • Комментарии (0):

      Информация

      Информация

        Посетители, находящиеся в группе Гости, не могут оставлять комментарии в данной новости.

        ↓ Меню



        ↓ Опрос

        А Вы добавили сайт в закладки?
        Да
        Не


        Top 10 за месяц (Фильмы)