.
Авторизация | Регистрация
» » Синдром Шахматиста (2014) DVDRip от NovaLan торрент скачать бесплатно




    Синдром Шахматиста (2014) DVDRip от NovaLan торрент скачать бесплатно

    Опубликовал: Админ | Дата: 27-02-2015, 11:10 | Просмотров: 422





    Снималось в: Россия
    Создали в: Berg Sound
    Категория жанра: Боевик
    Создали в: 2014

    Время просмотра: 4 х 00:46:00


    Язык: Русский

    Главный режиссер: Карен Адамян


    Актеры: Юрий Кормушин, Марина Вайнбранд, Влад Канопка, Анастасия Сметанина, Олег Шкловский, Павел Кузьмин, Вячеслав Кулаков, Михаил Хмуров, Леонид Евтифьев, Владимир Стеклов


    Сюжет: В российском городе Торбинске происходит цепь загадочных убийств среди криминальных авторитетов. По слухам и разговорам за этими убийствами стоит загадочная личность Шахматист, но никто его не знает и никогда не видел. И полиция и весь криминальный мир Торбинска ищут этого самого Шахматиста. В это же время в город приезжает Влад Артемьев — преподаватель истории Востока и мастер восточных боевых искусств. В силу ряда причин подозрение падает на него. Чтобы доказать свою невиновность и найти истинного Шахматиста Влад скрывается и начинает собственные поиски. В этом ему помогают студентка Кристина и компьютерный гений Ульяна. В результате многочисленных перипетий Владу удается найти и обезвредить Шахматиста и тем самым доказать свою непричастность к происходящим в городе беспорядкам.

    Исходник: DVD9 R5

    Тип релиза: DVDRip

    Контейнер: AVI


    Информация о видео: XviD, ~ 1318 Кбит/с, 720х400
    Информация о звуке: АС3, 2 ch, 192 Кбит/с



    MediaInfo
    Общее
    Полное имя : D:8СИНДРОМ ШАХМАТИСТА1 серия.avi
    Формат : AVI
    Формат/Информация : Audio Video Interleave
    Размер файла : 501 Мбайт
    Продолжительность : 46 м.
    Общий поток : 1516 Кбит/сек
    Программа кодирования : VirtualDubMod 1.5.10.3 | www.virtualdub-fr.org || (build 2550/release)
    Библиотека кодирования : VirtualDubMod build 2550/release

    Видео
    Идентификатор : 0
    Формат : MPEG-4 Visual
    Профиль формата : Advanced Simple@L5
    Параметр BVOP формата : 2
    Параметр QPel формата : Нет
    Параметр GMC формата : Без точки перехода
    Параметр матрицы формата : Default (MPEG)
    Режим смешивания : Сжатый битовый поток
    Идентификатор кодека : XVID
    Идентификатор кодека/Подсказка : XviD
    Продолжительность : 46 м.
    Битрейт : 1315 Кбит/сек
    Ширина : 720 пикселей
    Высота : 400 пикселей
    Соотношение сторон : 16:9
    Частота кадров : 23,976 кадра/сек
    Цветовое пространство : YUV
    Субдискретизация насыщенности : 4:2:0
    Битовая глубина : 8 бит
    Тип развёртки : Прогрессивная
    Метод сжатия : С потерями
    Бит/(Пиксели*Кадры) : 0.190
    Размер потока : 435 Мбайт (87%)
    Библиотека кодирования : XviD 1.2.1 (UTC 2008-12-04)

    Аудио
    Идентификатор : 1
    Формат : AC-3
    Формат/Информация : Audio Coding 3
    Расширение режима : CM (complete main)
    Параметр Endianness формата : Big
    Идентификатор кодека : 2000
    Продолжительность : 46 м.
    Вид битрейта : Постоянный
    Битрейт : 192 Кбит/сек
    Каналы : 2 канала
    Расположение каналов : Front: L R
    Частота : 48,0 КГц
    Битовая глубина : 16 бит
    Метод сжатия : С потерями
    Размер потока : 63,5 Мбайт (13%)
    Выравнивание : Разделение по промежуткам
    Продолжительность промежутка : 42 мс. (1,00 видеокадр)
    Время предзагрузки промежутка : 500 мс.







    Скриншоты для ознакомления




    Релиз группа:

    Автор рипа:
    Залил: YArl
    Размер скачиваемого торрента: 1.96 GB (2104594432 Bytes)

    Синдром Шахматиста (2014) DVDRip от NovaLan торрент скачать бесплатно
    загрузка...
    Рейтинг →
     (голосов: 1, оценка 3/5, голосовать можно 1 раз )

    Другие торренты по теме:

  • Синдром Шахматиста (2014) DVDRip-AVC от MediaClub торрент скачать бесплатно
  • Синдром Шахматиста (2014) DVDRip | Лицензия скачать через торрент бесплатно


    • Комментарии (0):

      Информация

      Информация

        Посетители, находящиеся в группе Гости, не могут оставлять комментарии в данной новости.

        ↓ Меню



        ↓ Опрос

        А Вы добавили сайт в закладки?
        Да
        Не


        Top 10 за неделю (Фильмы)