.
Авторизация | Регистрация
» » Женщина в клетке / Мистериум. Начало / The Keeper of Lost Causes / The Woman in the Cage (2013) BDRip 1080p от CINEMANIA | P скачать через торрент бесплатно




    Женщина в клетке / Мистериум. Начало / The Keeper of Lost Causes / The Woman in the Cage (2013) BDRip 1080p от CINEMANIA | P скачать через торрент бесплатно

    Опубликовал: Админ | Дата: 27-02-2015, 11:10 | Просмотров: 703



    Детально о кино
    Русское название:
    Женщина в клетке / Мистериум. Начало
    Русское название в мировом прокате:
    Kvinden i buret / The Keeper of Lost Causes / The Woman in the Cage
    Создали в: 2013
    Категория жанра: триллер, криминал, детектив
    Главный режиссер: Сирил Босс, Филипп Штеннерт
    Актеры: Николай Ли Каас, Фарес Фарес, Соня Рихтер, Клаус Маак Бансен, Расмус Ботофт, Эрнст Бойе, Кеннет Кармон

    Сюжет фильма:
    Серьезные злодеяния не имеют срока действия. Карл Мерке и Асада — детективы, которые занимаются висяками. Именно так называют безнадежные дела. Они собираются расследовать исчезновение Мереты Люнггор, которая является депутатом датского парламента. Она пропала пят лет назад, пребывая на пароме между Данией и Германией. Истина, до которой докопаются сыщики, окажется шокирующей — невероятно шокирующей.



    Снималось в: Дания, Германия, Швеция
    Время просмотра: 01:36:33
    Тип перевода: Профессиональное (многоголосое) Позитив

    Файл
    Тип видео: MKV
    Качество фильма: BDRip 1080p PHD
    Информация о видео: 10311 kb/s, 1920x800
    Информация о звуке: Russian: AC3, 224 kb/s (2 ch) / Norwegian: DTS, 1510 kb/s (6 ch)
    Субтитры: English
    Дополнительно: Сохранены оригинальные чаптеры как на Blu-Ray
    Размер скачиваемого торрента: 8.29 GB
    Скачать: Сэмпл

    Релиз группы:



    NFO
    Общее
    The.Keeper.Of.Lost.Causes.2013.Blu.Ray.1080p.CINEMANIA.mkv
    Формат : Matroska
    Версия формата : Version 4 / Version 2
    Размер файла : 8,29 Гбайт
    Продолжительность : 1 ч. 36 м.
    Общий поток : 12,3 Мбит/сек
    Название фильма : Release Group CINEMANIA
    Дата кодирования : UTC 2014-03-08 13:45:06
    Программа кодирования : mkvmerge v6.8.0 (;Theme for Great Cities;) 64bit built on Mar 2 2014 21:34:26
    Библиотека кодирования : libebml v1.3.0 libmatroska v1.4.1

    Видео
    Идентификатор : 1
    Формат : AVC
    Формат/Информация : Advanced Video Codec
    Профиль формата : High@L4.1
    Параметр CABAC формата : Да
    Параметр ReFrames формата : 5 кадров
    Идентификатор кодека : V_MPEG4/ISO/AVC
    Продолжительность : 1 ч. 36 м.
    Битрейт : 10,3 Мбит/сек
    Ширина : 1920 пикселей
    Высота : 800 пикселей
    Соотношение сторон : 2,40:1
    Режим частоты кадров : Постоянный
    Частота кадров : 24,000 кадра/сек
    Цветовое пространство : YUV
    Субдискретизация насыщенности : 4:2:0
    Битовая глубина : 8 бит
    Тип развёртки : Прогрессивная
    Бит/(Пиксели*Кадры) : 0.280
    Размер потока : 6,96 Гбайт (84%)
    Заголовок : Release Group CINEMANIA
    Язык : English
    Default : Да
    Forced : Нет

    Аудио #1
    Идентификатор : 2
    Формат : AC-3
    Формат/Информация : Audio Coding 3
    Расширение режима : CM (complete main)
    Параметр Endianness формата : Big
    Идентификатор кодека : A_AC3
    Продолжительность : 1 ч. 36 м.
    Вид битрейта : Постоянный
    Битрейт : 224 Кбит/сек
    Каналы : 2 канала
    Расположение каналов : Front: L R
    Частота : 48,0 КГц
    Битовая глубина : 16 бит
    Метод сжатия : С потерями
    Размер потока : 155 Мбайт (2%)
    Заголовок : Позитив
    Язык : Russian
    Default : Да
    Forced : Да

    Аудио #2
    Идентификатор : 3
    Формат : DTS
    Формат/Информация : Digital Theater Systems
    Режим : 16
    Параметр Endianness формата : Big
    Идентификатор кодека : A_DTS
    Продолжительность : 1 ч. 36 м.
    Вид битрейта : Постоянный
    Битрейт : 1509 Кбит/сек
    Каналы : 6 каналов
    Расположение каналов : Front: L C R, Side: L R, LFE
    Частота : 48,0 КГц
    Битовая глубина : 24 бит
    Метод сжатия : С потерями
    Размер потока : 1,02 Гбайт (12%)
    Язык : Danish
    Default : Нет
    Forced : Нет

    Текст
    Идентификатор : 4
    Формат : UTF-8
    Идентификатор кодека : S_TEXT/UTF8
    Идентификатор кодека/Информация : UTF-8 Plain Text
    Язык : English
    Default : Нет
    Forced : Нет

    Меню
    00:00:00.000 : en:00:00:00.000
    00:10:00.000 : en:00:10:00.000
    00:19:59.542 : en:00:19:59.542
    00:29:59.708 : en:00:29:59.708
    00:39:59.750 : en:00:39:59.750
    00:49:59.833 : en:00:49:59.833
    00:59:59.625 : en:00:59:59.625
    01:09:59.667 : en:01:09:59.667
    01:19:59.708 : en:01:19:59.708
    01:29:59.750 : en:01:29:59.750

    Залил: DGEKIGAN
    Размер скачиваемого торрента: 8.29 GB (8900679089 Bytes)

    Женщина в клетке / Мистериум. Начало / The Keeper of Lost Causes / The Woman in the Cage (2013) BDRip 1080p от CINEMANIA | P скачать через торрент бесплатно
    загрузка...
    Рейтинг →
     (голосов: 1, оценка 4/5, голосовать можно 1 раз )

    Другие торренты по теме:

  • the Chemodan - Кроме женщин и детей (2012) MP3 от AGR - Generalfilm торрент скачать бесплатно
  • Янина Познянская - Как деловой женщине стать счастливой женой (2012) PDF торрент скачать бесплатно
  • Поцелуй женщины-паука / Kiss of the Spider Woman (1985) BDRip от Rulya74 торрент скачать бесплатно
  • Женщина-кошка / Catwoman (2004) HDRip-AVC торрент скачать бесплатно
  • Женщина в черном / The Woman in Black (2012) BDRip-AVC торрент скачать бесплатно
  • Маленькие женщины / Little Women (1994) HDTVRip от Scarabey | P торрент скачать бесплатно
  • Запах женщины / Scent of a Woman (1992) HDRip от Scarabey | P торрент скачать бесплатно
  • Не говоря о всех этих женщинах / Fr att inte tala om alla dessa kvinnor (1964) DVDRip от Киномагия l P торрент скачать бесплатно


    • Комментарии (0):

      Информация

      Информация

        Посетители, находящиеся в группе Гости, не могут оставлять комментарии в данной новости.

        ↓ Меню



        ↓ Опрос

        А Вы добавили сайт в закладки?
        Да
        Не


        Top 10 за неделю (Фильмы)