.
Авторизация | Регистрация
» » Бесславные ублюдки / Inglourious Basterds (2009) DVD9 DVD5 | D | Коллекционное издание скачать через торрент бесплатно




    Бесславные ублюдки / Inglourious Basterds (2009) DVD9 DVD5 | D | Коллекционное издание скачать через торрент бесплатно

    Опубликовал: Админ | Дата: 27-02-2015, 11:10 | Просмотров: 243



    Детально о кино
    Русское название: Бесславные ублюдки
    Русское название в мировом прокате: Inglourious Basterds
    Создали в: 2009
    Категория жанра: боевик, драма, комедия, военный
    Главный режиссер: Квентин Тарантино, Элай Рот
    Актеры: Брэд Питт, Кристоф Вальц, Мелани Лоран, Даниэль Брюль, Дайан Крюгер, Майкл Фассбендер, Аугуст Диль, Элай Рот, Тиль Швайгер, Гедеон Буркхард

    Сюжет фильма:
    Вторая мировая война, в оккупированной немцами Франции группа американских солдат-евреев наводит страх на нацистов, жестоко убивая и скальпируя солдат.




    Снималось в: США, Германия
    Киностудия: A Band Apart, Lawrence Bender Productions, The Weinstein Company LLC, Universal Pictures
    Время просмотра: 153 мин. / 02:33
    Перевод текста 1: полное дублирование
    Перевод текста 2: полное дублирование (только на английскую речь)
    Перевод текста бонусов: субтитры

    Файл
    Кодек для видео: MPEG2
    Качество фильма: DVD9 DVD5
    Информация о видео: PAL 16:9 (720x576) VBR 4750 Kbps, 25.000 fps
    Информация о звуке: Dolby AC3, 6 ch, 48.0 KHz, 384 Kbps
    Субтитры: русские (2 вида), украинские, английские, эстонские, латышские, литовские
    Бонус-Диск: Круглый стол, Гордость нации, Inglorious Bastards, Беседа с Родом Тейлором, Род Тейлор о пиве, Ангел камеры, Приветы Салли, Экскурсия по галерее постеров, Галерея постеров

    MediaInfo
    General
    Complete name : E:Inglourious Basterds.2DVDDisc1VIDEO_TSVTS_01_1.VOB
    Format : MPEG-PS
    File size : 1 024 MiB
    Duration : 23mn 46s
    Overall bit rate mode : Variable
    Overall bit rate : 6 022 Kbps

    Video
    ID : 224 (0xE0)
    Format : MPEG Video
    Format version : Version 2
    Format profile : Main@Main
    Format settings, BVOP : No
    Format settings, Matrix : Custom
    Format settings, GOP : Variable
    Duration : 23mn 46s
    Bit rate mode : Variable
    Bit rate : 4 750 Kbps
    Maximum bit rate : 9 800 Kbps
    Width : 720 pixels
    Height : 576 pixels
    Display aspect ratio : 16:9
    Frame rate : 25.000 fps
    Standard : PAL
    Color space : YUV
    Chroma subsampling : 4:2:0
    Bit depth : 8 bits
    Scan type : Interlaced
    Scan order : Top Field First
    Compression mode : Lossy
    Bits/(Pixel*Frame) : 0.458
    Time code of first frame : 00:59:59:00
    Time code source : Group of pictures t_head
    Stream size : 808 MiB (79%)

    Audio #1
    ID : 189 (0xBD)-128 (0x80)
    Format : AC-3
    Format/Info : Audio Coding 3
    Mode extension : CM (complete main)
    Format settings, Endianness : Big
    Muxing mode : DVD-Video
    Duration : 23mn 45s
    Bit rate mode : Constant
    Bit rate : 384 Kbps
    Channel(s) : 6 channels
    Channel positions : Front: L C R, Side: L R, LFE
    Sampling rate : 48.0 KHz
    Bit depth : 16 bits
    Compression mode : Lossy
    Stream size : 65.3 MiB (6%)

    Audio #2
    ID : 189 (0xBD)-129 (0x81)
    Format : AC-3
    Format/Info : Audio Coding 3
    Mode extension : CM (complete main)
    Format settings, Endianness : Big
    Muxing mode : DVD-Video
    Duration : 23mn 45s
    Bit rate mode : Constant
    Bit rate : 384 Kbps
    Channel(s) : 6 channels
    Channel positions : Front: L C R, Side: L R, LFE
    Sampling rate : 48.0 KHz
    Bit depth : 16 bits
    Compression mode : Lossy
    Stream size : 65.3 MiB (6%)

    Audio #3
    ID : 189 (0xBD)-130 (0x82)
    Format : AC-3
    Format/Info : Audio Coding 3
    Mode extension : CM (complete main)
    Format settings, Endianness : Big
    Muxing mode : DVD-Video
    Duration : 23mn 45s
    Bit rate mode : Constant
    Bit rate : 384 Kbps
    Channel(s) : 6 channels
    Channel positions : Front: L C R, Side: L R, LFE
    Sampling rate : 48.0 KHz
    Bit depth : 16 bits
    Compression mode : Lossy
    Stream size : 65.3 MiB (6%)

    Text #1
    ID : 189 (0xBD)-32 (0x20)
    Format : RLE
    Format/Info : Run-length encoding
    Muxing mode : DVD-Video

    Text #2
    ID : 189 (0xBD)-33 (0x21)
    Format : RLE
    Format/Info : Run-length encoding
    Muxing mode : DVD-Video

    Text #3
    ID : 189 (0xBD)-34 (0x22)
    Format : RLE
    Format/Info : Run-length encoding
    Muxing mode : DVD-Video

    Text #4
    ID : 189 (0xBD)-35 (0x23)
    Format : RLE
    Format/Info : Run-length encoding
    Muxing mode : DVD-Video

    Text #5
    ID : 189 (0xBD)-36 (0x24)
    Format : RLE
    Format/Info : Run-length encoding
    Muxing mode : DVD-Video

    Text #6
    ID : 189 (0xBD)-37 (0x25)
    Format : RLE
    Format/Info : Run-length encoding
    Muxing mode : DVD-Video

    Text #7
    ID : 189 (0xBD)-38 (0x26)
    Format : RLE
    Format/Info : Run-length encoding
    Muxing mode : DVD-Video

    Menu

    Скриншоты для ознакомления

    Залил: carisha
    Размер скачиваемого торрента: 11.55 GB (12405266432 Bytes)

    Бесславные ублюдки / Inglourious Basterds (2009) DVD9 DVD5 | D | Коллекционное издание скачать через торрент бесплатно
    загрузка...
    Рейтинг →
     (голосов: 1, оценка 5/5, голосовать можно 1 раз )

    Другие торренты по теме:

  • Бесславные ублюдки / Inglourious Basterds (2009) BDRip 1080p торрент скачать бесплатно
  • Бесславные ублюдки / Inglourious Basterds (2009) BDRip-AVC от HELLYWOOD скачать через торрент бесплатно
  • Бесславные ублюдки / Inglourious Basterds (2009) BDRip 720p от Leonardo and Scarabey | D торрент скачать бесплатно
  • Бесславные ублюдки / Inglourious Basterds (2009) HDRip торрент скачать бесплатно


    • Комментарии (0):

      Информация

      Информация

        Посетители, находящиеся в группе Гости, не могут оставлять комментарии в данной новости.

        ↓ Меню



        ↓ Опрос

        А Вы добавили сайт в закладки?
        Да
        Не


        Top 10 за неделю (Фильмы)