.
Авторизация | Регистрация
» » Секретный эксперимент / The Banshee Chapter (2013) WEB-DL 720p от GORESEWAGE | Line, L1 скачать через торрент бесплатно




    Секретный эксперимент / The Banshee Chapter (2013) WEB-DL 720p от GORESEWAGE | Line, L1 скачать через торрент бесплатно

    Опубликовал: Админ | Дата: 27-02-2015, 11:10 | Просмотров: 260



    Секретный эксперимент / The Banshee Chapter

    Создали в: 2013
    Снималось в: Германия, США
    Категория жанра: ужасы, триллер
    Время просмотра: 01:27:08
    Перевод текста 1: Профессиональный (дублированный) Line
    Перевод текста 2: Любительский (одноголосый закадровый) VANO
    Оригинальная аудиодорожка: English
    Субтитры: English (SDH)
    Киностудия: Sunchaser Entertainment, Before The Door Pictures, Favorit Film

    Главный режиссёр: Блэр Эриксон / Blair Erickson

    Актеры: Катя Винтер, Майкл МакМиллиан, Тед Левайн, Моник Канделария, Дженни Гэбриэлль, Дэвид Мидфандер, Чед Брамметт, Сид Шульте, Вивиан Несбитт, Дж.Д. Гарфилд и др.

    Сюжет: Молодая журналистка Энн расследует случай бесследного исчезновения своего друга, с которым вместе они учились в университете. В его доме Энн находит запись, которую приятель сделал на камеру, и в которой рассказывает, что занимался изучением одного из секретных правительственных экспериментов по разработке сыворотки, способной изменять сознание людей. Сыворотка изготавливалась из мозга умерших, результаты экспериментов были засекречены, программа свернута. Ужасная правда заключается в том, что пропавший журналист в ходе своего расследования получил доступ к документам и химической формуле сыворотки и решил принять её сам, после чего исчез. Энн пытается разобраться в сути правительственного эксперимента и найти его участников, чтобы разобраться в том, что же произошло с её другом. В ходе её расследования всплывает правда настолько страшная, что лучше бы Энн было её не знать.



    Sample

    Качество фильма: WEB-DL 720p
    Контейнер: MKV
    Информация о видео кодек: MPEG-4 AVC Video
    Информация о звуке кодек: AC3
    Информация о видео: MPEG-4 AVC Video / 4000 kbps / 1280x720p / 23,976 fps / 16:9 / High Profile 4.1
    Информация о звуке 1: Russian / AC3 / 2.0 / 48 kHz / 192 kbps / 16-bit | Dub Line
    Информация о звуке 2: Russian / AC3 / 5.1 / 48 kHz / 384 kbps / 16-bit | VO VANO
    Информация о звуке 3: English / AC3 / 5.1 / 48 kHz / 384 kbps / 16-bit | Original
    Навигация по главам: да

    Screens

    MediaInfo
    C:/GORESEWAGE/The Banshee Chapter 2013 WEB-DL 720p GORESEWAGE.mkv
    General
    Unique ID : 218395539123507132488400764676498090067 (0xA44D736B06F759C3AA94FDFB89516853)
    Complete name : C:/GORESEWAGE/The Banshee Chapter 2013 WEB-DL 720p GORESEWAGE.mkv
    Format : Matroska
    Format version : Version 4 / Version 2
    File size : 3.02 GiB
    Duration : 1h 27mn
    Overall bit rate : 4 961 Kbps
    Movie name : The Banshee Chapter 2013 WEB-DL 720p GORESEWAGE
    Encoded date : UTC 2014-03-08 08:52:37
    Writing application : mkvmerge v6.8.0 (;Theme for Great Cities;) 64bit built on Mar 2 2014 21:34:26
    Writing library : libebml v1.3.0 libmatroska v1.4.1
    Attachment : Yes
    Video #1
    ID : 1
    Format : AVC
    Format/Info : Advanced Video Codec
    Format profile : High@L4.1
    Format settings, CABAC : Yes
    Format settings, ReFrames : 9 frames
    Codec ID : V_MPEG4/ISO/AVC
    Duration : 1h 27mn
    Bit rate : 4 000 Kbps
    Width : 1 280 pixels
    Height : 720 pixels
    Display aspect ratio : 16:9
    Frame rate mode : Constant
    Frame rate : 23.976 fps
    Color space : YUV
    Chroma subsampling : 4:2:0
    Bit depth : 8 bits
    Scan type : Progressive
    Bits/(Pixel*Frame) : 0.181
    Stream size : 2.38 GiB (79%)
    Title : The Banshee Chapter 2013 WEB-DL 720p GORESEWAGE
    Writing library : x264 core 133 r2334 a3ac64b
    Encoding settings : cabac=1 / ref=9 / deblock=1:-3:-3 / analyse=0x3:0x113 / me=umh / subme=11 / psy=1 / psy_rd=1.00:0.00 / mixed_ref=1 / me_range=32 / chroma_me=1 / trellis=2 / 8x8dct=1 / cqm=0 / deadzone=21,11 / fast_pskip=0 / chroma_qp_offset=-2 / threads=6 / lookahead_threads=1 / sliced_threads=0 / nr=0 / decimate=0 / interlaced=0 / bluray_compat=0 / constrained_intra=0 / bframes=8 / b_pyramid=2 / b_adapt=2 / b_bias=0 / direct=3 / weightb=1 / open_gop=0 / weightp=2 / keyint=240 / keyint_min=24 / scenecut=40 / intra_refresh=0 / rc_lookahead=240 / rc=2pass / mbtree=1 / bitrate=4000 / ratetol=1.0 / qcomp=0.70 / qpmin=0 / qpmax=69 / qpstep=4 / cplxblur=20.0 / qblur=0.5 / ip_ratio=1.10 / aq=1:0.80
    Language : English
    Default : Yes
    Forced : No
    Audio #2
    ID : 2
    Format : AC-3
    Format/Info : Audio Coding 3
    Mode extension : CM (complete main)
    Format settings, Endianness : Big
    Codec ID : A_AC3
    Duration : 1h 27mn
    Bit rate mode : Constant
    Bit rate : 192 Kbps
    Channel count : 2 channels
    Channel positions : Front: L R
    Sampling rate : 48.0 KHz
    Bit depth : 16 bits
    Compression mode : Lossy
    Stream size : 120 MiB (4%)
    Title : Dub Line
    Language : Russian
    Default : Yes
    Forced : No
    Audio #3
    ID : 3
    Format : AC-3
    Format/Info : Audio Coding 3
    Mode extension : CM (complete main)
    Format settings, Endianness : Big
    Codec ID : A_AC3
    Duration : 1h 27mn
    Bit rate mode : Constant
    Bit rate : 384 Kbps
    Channel count : 6 channels
    Channel positions : Front: L C R, Side: L R, LFE
    Sampling rate : 48.0 KHz
    Bit depth : 16 bits
    Compression mode : Lossy
    Stream size : 239 MiB (8%)
    Title : VO VANO
    Language : Russian
    Default : No
    Forced : No
    Audio #4
    ID : 4
    Format : AC-3
    Format/Info : Audio Coding 3
    Mode extension : CM (complete main)
    Format settings, Endianness : Big
    Codec ID : A_AC3
    Duration : 1h 27mn
    Bit rate mode : Constant
    Bit rate : 384 Kbps
    Channel count : 6 channels
    Channel positions : Front: L C R, Side: L R, LFE
    Sampling rate : 48.0 KHz
    Bit depth : 16 bits
    Compression mode : Lossy
    Stream size : 239 MiB (8%)
    Title : Original
    Language : English
    Default : No
    Forced : No
    Text #5
    ID : 5
    Format : UTF-8
    Codec ID : S_TEXT/UTF8
    Codec ID/Info : UTF-8 Plain Text
    Title : SDH
    Language : English
    Default : No
    Forced : No

    Размер скачиваемого торрента: 3.02 GB (3242471875 Bytes)

    Секретный эксперимент / The Banshee Chapter (2013) WEB-DL 720p от GORESEWAGE | Line, L1 скачать через торрент бесплатно
    загрузка...
    Рейтинг →
     (голосов: 1, оценка 4/5, голосовать можно 1 раз )

    Другие торренты по теме:



      Комментарии (0):

      Информация

      Информация

        Посетители, находящиеся в группе Гости, не могут оставлять комментарии в данной новости.

        ↓ Меню



        ↓ Опрос

        А Вы добавили сайт в закладки?
        Да
        Не


        Top 10 за неделю (Фильмы)