.
Авторизация | Регистрация
» » Принц жемчужного острова / Le prince du Pacifique (2000) DVDRip торрент скачать бесплатно




    Принц жемчужного острова / Le prince du Pacifique (2000) DVDRip торрент скачать бесплатно

    Опубликовал: Админ | Дата: 27-02-2015, 11:10 | Просмотров: 270





    Снималось в: Франция, Испания
    Создали в: ICE3, Mate Producciones S.A., TF1 Films Production
    Категория жанра: Комедия
    Создали в: 2000

    Время просмотра: 01:36:22


    Перевод текста: Профессиональный многоголосый, профессиональный двухголосый, профессиональный одноголосый


    Оригинальная аудиодорожка: Французская

    Главный режиссер: Ален Корно


    Актеры: Тьерри Лермитт, Патрик Тимсит, Мари Трентиньян, Франсуа Берлеан, Тьерри Марани, Бенжамин Атью, Хулио Эскалада, Мишель Фаатамо, Даниэль Хименес Качо


    Сюжет: 1918 год… Французский военный корабль под командованием капитана Альфреда де Морсака причаливает к берегам полинезийского Жемчужного острова, где обитает древнее племя воинов Хива. Однако, всем заправляет на этом острове разжалованный французский майор Лефевр. Принц Жемчужного острова по имени Рейя принимает де Морсака за божество, посланное согласно легенде освободить племя Хива от порабощения.



    Исходник: DVD5 R1

    Тип релиза: DVDRip

    Контейнер: AVI



    Информация о видео: XviD, 1592 Кбит/с, 704х304
    Информация о звуке: Русский, французский (АС3, 2 ch, 192 Кбит/с)

    Семпл

    Перевод

    Аудио#1: Профессиональный многоголосый
    Аудио#2: Профессиональный двухголосый
    Аудио#3: Профессиональный одноголосый
    Аудио#4: Французский


    MediaInfo
    Общее
    Полное имя : D:залитьПринц жемчужного острова.avi
    Формат : AVI
    Формат/Информация : Audio Video Interleave
    Размер файла : 1,47 Гбайт
    Продолжительность : 1 ч. 36 м.
    Общий поток : 2183 Кбит/сек
    Программа кодирования : VirtualDubMod 1.5.10.2 (build 2540/release)
    Библиотека кодирования : VirtualDubMod build 2540/release

    Видео
    Идентификатор : 0
    Формат : MPEG-4 Visual
    Профиль формата : Advanced Simple@L5
    Параметр BVOP формата : 2
    Параметр QPel формата : Нет
    Параметр GMC формата : Без точки перехода
    Параметр матрицы формата : Default (MPEG)
    Режим смешивания : Сжатый битовый поток
    Идентификатор кодека : XVID
    Идентификатор кодека/Подсказка : XviD
    Продолжительность : 1 ч. 36 м.
    Битрейт : 1391 Кбит/сек
    Ширина : 704 пикселя
    Высота : 304 пикселя
    Соотношение сторон : 2,35:1
    Частота кадров : 23,976 кадра/сек
    Цветовое пространство : YUV
    Субдискретизация насыщенности : 4:2:0
    Битовая глубина : 8 бит
    Тип развёртки : Прогрессивная
    Метод сжатия : С потерями
    Бит/(Пиксели*Кадры) : 0.271
    Размер потока : 959 Мбайт (64%)
    Библиотека кодирования : XviD 1.2.1 (UTC 2008-12-04)

    Аудио #1
    Идентификатор : 1
    Формат : AC-3
    Формат/Информация : Audio Coding 3
    Расширение режима : CM (complete main)
    Параметр Endianness формата : Big
    Идентификатор кодека : 2000
    Продолжительность : 1 ч. 36 м.
    Вид битрейта : Постоянный
    Битрейт : 192 Кбит/сек
    Каналы : 2 канала
    Расположение каналов : Front: L R
    Частота : 48,0 КГц
    Битовая глубина : 16 бит
    Метод сжатия : С потерями
    Задержка видео : 7 мс.
    Размер потока : 132 Мбайт (9%)
    Выравнивание : Разделение по промежуткам
    Продолжительность промежутка : 42 мс. (1,00 видеокадр)
    Время предзагрузки промежутка : 500 мс.

    Аудио #2
    Идентификатор : 2
    Формат : AC-3
    Формат/Информация : Audio Coding 3
    Расширение режима : CM (complete main)
    Параметр Endianness формата : Big
    Идентификатор кодека : 2000
    Продолжительность : 1 ч. 36 м.
    Вид битрейта : Постоянный
    Битрейт : 192 Кбит/сек
    Каналы : 2 канала
    Расположение каналов : Front: L R
    Частота : 48,0 КГц
    Битовая глубина : 16 бит
    Метод сжатия : С потерями
    Размер потока : 132 Мбайт (9%)
    Выравнивание : Разделение по промежуткам
    Продолжительность промежутка : 42 мс. (1,00 видеокадр)
    Время предзагрузки промежутка : 500 мс.

    Аудио #3
    Идентификатор : 3
    Формат : AC-3
    Формат/Информация : Audio Coding 3
    Расширение режима : CM (complete main)
    Параметр Endianness формата : Big
    Идентификатор кодека : 2000
    Продолжительность : 1 ч. 36 м.
    Вид битрейта : Постоянный
    Битрейт : 192 Кбит/сек
    Каналы : 2 канала
    Расположение каналов : Front: L R
    Частота : 48,0 КГц
    Битовая глубина : 16 бит
    Метод сжатия : С потерями
    Размер потока : 132 Мбайт (9%)
    Выравнивание : Разделение по промежуткам
    Продолжительность промежутка : 42 мс. (1,00 видеокадр)
    Время предзагрузки промежутка : 500 мс.

    Аудио #4
    Идентификатор : 4
    Формат : AC-3
    Формат/Информация : Audio Coding 3
    Расширение режима : CM (complete main)
    Параметр Endianness формата : Big
    Идентификатор кодека : 2000
    Продолжительность : 1 ч. 36 м.
    Вид битрейта : Постоянный
    Битрейт : 192 Кбит/сек
    Каналы : 2 канала
    Расположение каналов : Front: L R
    Частота : 48,0 КГц
    Битовая глубина : 16 бит
    Метод сжатия : С потерями
    Размер потока : 132 Мбайт (9%)
    Выравнивание : Разделение по промежуткам
    Продолжительность промежутка : 42 мс. (1,00 видеокадр)
    Время предзагрузки промежутка : 500 мс.






    Скриншоты для ознакомления


    Автор рипа:
    Залил: YArl
    Размер скачиваемого торрента: 1.47 GB (1577789440 Bytes)

    Принц жемчужного острова / Le prince du Pacifique (2000) DVDRip торрент скачать бесплатно
    загрузка...
    Рейтинг →
     (голосов: 1, оценка 4/5, голосовать можно 1 раз )

    Другие торренты по теме:

  • Принц Щелкунчик / The Nutcracker Prince (1990) DVDRip торрент скачать бесплатно
  • Маленький принц / Le petit prince / The Little Prince (2010) SATRip от Youtracker | P торрент скачать бесплатно
  • OST - Принц Персии: Пески времени - Soundtrack (2010) MP3 торрент скачать бесплатно
  • Нефтяной король / Нефтяной принц / Der lprinz (1965) BDRip 720p | P торрент скачать бесплатно
  • Принц Персии: Пески Времени / Prince of Persia: The Sands of Time (2003) PC | Лицензия торрент скачать бесплатно
  • Хроники Нарнии: Принц Каспиан / The Chronicles of Narnia: Prince Caspian (2008) BDRip-AVC | iPad торрент скачать бесплатно
  • OST - Принц Египта / The Prince Of Egypt (1998) MP3 торрент скачать бесплатно
  • Принц и нищий / Prince And The Pauper (2000) DVDRip от rondik | P торрент скачать бесплатно


    • Комментарии (0):

      Информация

      Информация

        Посетители, находящиеся в группе Гости, не могут оставлять комментарии в данной новости.

        ↓ Меню



        ↓ Опрос

        А Вы добавили сайт в закладки?
        Да
        Не


        Top 10 за неделю (Фильмы)