.
Авторизация | Регистрация
Хочешь лучшие торренты? Добавь свой email!
Добавить
» » Голодные игры: И вспыхнет пламя / The Hunger Games: Catching Fire (2013) BDRip-AVC | iPhone | D торрент скачать бесплатно




    Голодные игры: И вспыхнет пламя / The Hunger Games: Catching Fire (2013) BDRip-AVC | iPhone | D торрент скачать бесплатно

    Опубликовал: Админ | Дата: 27-02-2015, 11:10 | Просмотров: 341



    Голодные игры: И вспыхнет пламя / The Hunger Games: Catching Fire (2013) BDRip-AVC | iPhone | D

    Русское название: Голодные игры: И вспыхнет пламя
    Русское название в мировом прокате: The Hunger Games: Catching Fire
    Создали в: 2013
    Категория жанра: фантастика, боевик, триллер, приключения
    Главный режиссер: Френсис Лоуренс
    Актеры: Дженнифер Лоуренс, Джош Хатчерсон, Сэм Клафлин, Джена Мэлоун, Вуди Харрельсон, Элизабет Бэнкс, Лиам Хемсворт, Дональд Сазерленд, Филип Сеймур Хоффман, Стэнли Туччи

    Сюжет фильма:
    Сумев выжить на безжалостных Голодных играх, Китнисс Эвердин и Пит Мелларк возвращаются домой. Но теперь они в еще большей опасности, так как своим отказом играть по правилам на Арене бросили вызов Капитолию. По традиции следующие, юбилейные, Голодные игры должны стать особенными, и в этот раз в них участвуют только победители прошлых лет. Китнисс и Пит вынуждены вновь выйти на Арену, где будут соперничать с сильнейшими. Правила игры меняются. Арена еще опасней, масштаб еще больше, ставки еще выше!



    Снималось в: США
    Киностудия: Lionsgate
    Время просмотра: 02:26:14
    Перевод текста: Русский дублированный

    Файл
    Кодек для видео: H.264
    Качество фильма: BDRip-AVC 480p
    Информация о видео: 640x356@852x356 (2.40:1) at 23.976 fps, AVC at 1600 kbps
    Информация о звуке:
    1: АС3 2.0 144 kbps - Русский дублированный (iTunes)
    2: АС3 2.0 144 kbps - Английский
    Субтитры: Отсутствуют

    MI

    General
    Complete name : C:CREATE480outThe Hunger Games-Catching Fire.2013 (SD).m4v
    Format : MPEG-4
    Codec ID : M4V
    File size : 1.93 GiB
    Duration : 2h 26mn
    Overall bit rate mode : Variable
    Overall bit rate : 1 890 Kbps
    Movie name : Голодные игры: И вспыхнет пламя
    Performer : Francis Lawrence
    Genre : Action Adventure
    Recorded date : UTC 2013-11-22 08:00:00
    Encoded date : UTC 2014-03-09 07:43:05
    Tagged date : UTC 2014-03-09 17:06:25
    Copyright : © 2013 Lions Gate Films Inc.
    Cover : Yes
    Comment : Помни, кто твой настоящий враг
    sonm : The Hunger Games: Catching Fire
    desc : Сумев выжить на безжалостных Голодных играх, Китнисс Эвердин и Пит Мелларк тщетно пытаются забыть о том, что произошло с ними в Капитолии. Но президент Сноу, диктатор государства Панем, и его клика не готовы оставить девушку и парня в покое.
    ldes : Сумев выжить на безжалостных Голодных играх, Китнисс Эвердин и Пит Мелларк тщетно пытаются забыть о том, что произошло с ними в Капитолии. Но президент Сноу, диктатор государства Панем, и его клика не готовы оставить девушку и парня в покое, считая их опасными. Власти решают устроить показательные Игры, в которых примут участие победители прошлых лет от каждого дистрикта. Жребий брошен: Китнисс и Пит вынуждены вернуться на Арену. Вновь они лицом к лицу со смертью — ради своих близких, ради своего будущего, ради своей любви!
    stik : 9
    rtng : 0
    cnID : 741296001
    xid : Apple:vendor_id:2013-tt1951264
    iTunEXTC : mpaa|PG-13|300|

    Video #1
    ID : 1
    Format : AVC
    Format/Info : Advanced Video Codec
    Format profile : Baseline@L3.0
    Format settings, CABAC : No
    Format settings, ReFrames : 2 frames
    Codec ID : avc1
    Codec ID/Info : Advanced Video Coding
    Duration : 2h 26mn
    Bit rate : 1 600 Kbps
    Maximum bit rate : 8 190 Kbps
    Width : 640 pixels
    Height : 356 pixels
    Display aspect ratio : 2.40:1
    Frame rate mode : Constant
    Frame rate : 23.976 fps
    Color space : YUV
    Chroma subsampling : 4:2:0
    Bit depth : 8 bits
    Scan type : Progressive
    Bits/(Pixel*Frame) : 0.293
    Stream size : 1.63 GiB (85%)
    Title : The Hunger Games_ Catching Fire _2013_
    Writing library : x264 core 140 r2377 40 929f149 tMod 8-bit@4:2:0 X86_64
    Encoding settings : cabac=0 / ref=2 / deblock=1:-2:-2 / analyse=0x1:0x131 / me=umh / subme=7 / psy=1 / fade_compensate=1.00 / psy_rd=1.00:0.15 / mixed_ref=1 / me_range=32 / chroma_me=1 / trellis=2 / 8x8dct=0 / cqm=0 / deadzone=21,11 / fast_pskip=0 / chroma_qp_offset=-3 / threads=12 / lookahead_threads=2 / sliced_threads=0 / nr=0 / decimate=0 / interlaced=0 / bluray_compat=0 / constrained_intra=0 / fgo=0 / bframes=0 / weightp=0 / keyint=250 / keyint_min=23 / scenecut=40 / intra_refresh=0 / rc_lookahead=96 / rc=2pass / mbtree=1 / bitrate=1600 / ratetol=1.0 / qcomp=0.70 / qpmin=0:0:0 / qpmax=69:69:69 / qpstep=4 / cplxblur=20.0 / qblur=0.5 / vbv_maxrate=5000 / vbv_bufsize=5000 / nal_hrd=none / filler=0 / ip_ratio=1.35 / aq=4:0.90 / aq-sensitivity=10.00 / aq-factor=1.00:1.00:1.00 / aq2=0 / aq3=0
    Language : English
    Encoded date : UTC 2014-03-09 07:43:05
    Tagged date : UTC 2014-03-09 07:44:02
    Matrix coefficients : BT.709

    Video #2
    ID : 5
    Format : JPEG
    Codec ID : jpeg
    Duration : 2h 26mn
    Bit rate mode : Variable
    Bit rate : 576 bps
    Width : 640 pixels
    Height : 267 pixels
    Display aspect ratio : 2.40:1
    Frame rate mode : Variable
    Frame rate : 0.002 fps
    Minimum frame rate : 0.001 fps
    Maximum frame rate : 0.003 fps
    Color space : YUV
    Chroma subsampling : 4:2:0
    Bit depth : 8 bits
    Compression mode : Lossy
    Bits/(Pixel*Frame) : 1.685
    Stream size : 563 KiB (0%)
    Language : English
    Encoded date : UTC 2014-03-09 17:06:16
    Tagged date : UTC 2014-03-09 17:06:17

    Audio #1
    ID : 2
    Format : AAC
    Format/Info : Advanced Audio Codec
    Format profile : LC
    Codec ID : 40
    Duration : 2h 26mn
    Bit rate mode : Variable
    Bit rate : 144 Kbps
    Maximum bit rate : 173 Kbps
    Channel(s) : 2 channels
    Channel positions : Front: L R
    Sampling rate : 48.0 KHz
    Compression mode : Lossy
    Stream size : 149 MiB (8%)
    Title : Dub _iTunes_
    Language : Russian
    Encoded date : UTC 2014-03-09 07:31:34
    Tagged date : UTC 2014-03-09 07:44:02

    Audio #2
    ID : 3
    Format : AAC
    Format/Info : Advanced Audio Codec
    Format profile : LC
    Codec ID : 40
    Duration : 2h 26mn
    Bit rate mode : Variable
    Bit rate : 144 Kbps
    Maximum bit rate : 173 Kbps
    Channel(s) : 2 channels
    Channel positions : Front: L R
    Sampling rate : 48.0 KHz
    Compression mode : Lossy
    Stream size : 151 MiB (8%)
    Title : Original
    Language : English
    Encoded date : UTC 2014-03-09 07:39:31
    Tagged date : UTC 2014-03-09 07:44:02

    Menu
    ID : 4
    Codec ID : text
    Duration : 2h 26mn
    Language : English
    Encoded date : UTC 2014-03-09 07:46:19
    Tagged date : UTC 2014-03-09 07:46:19
    Bit rate mode : CBR
    iTunes tags

    Sort Name: The Hunger Games: Catching Fire
    XID: Apple:vendor_id:2013-tt1951264
    contentID: 741296001
    Copyright: © 2013 Lions Gate Films Inc.
    Screenwriters: Саймон Бофой, Майкл Арндт, Сьюзен Коллинз
    Producers: Нина Джейкобсон, Джон Килик, Сьюзен Коллинз
    Director: Френсис Лоуренс
    Cast: Дженнифер Лоуренс, Джош Хатчерсон, Сэм Клафлин, Джена Мэлоун, Вуди Харрельсон, Элизабет Бэнкс, Лиам Хемсворт, Дональд Сазерленд, Филип Сеймур Хоффман, Стэнли Туччи // Jennifer Lawrence (Katniss Everdeen), Josh Hutcherson (Peeta Mellark), Sam Claflin (Finnick Odair), Elizabeth Banks (Effie Trinket), Alan Ritchson (Gloss), Jena Malone (Johanna Mason), Stanley Tucci (Caeser Flickerman), Willow Shields (Primrose Everdeen), Woody Harrelson (Haymitch Abernathy), Philip Seymour Hoffman (Plutarch Heavensbee), Donald Sutherland (President Snow), Amanda Plummer (Wiress), Meta Golding (Enobaria), Lenny Kravitz (Cinna), Lynn Cohen (Mags), Toby Jones (Claudius Templesmith), Stephanie Leigh Schlund (Cashmere), Bruno Gunn (Brutus), Maria Howell (Seeder), E. Roger Mitchell (Chaff), Patrick St. Esprit (Romulus Thread), Liam Hemsworth (Gale Hawthorne)
    Studio: Lionsgate
    Rating: 4
    Long Deion: Сумев выжить на безжалостных Голодных играх, Китнисс Эвердин и Пит Мелларк тщетно пытаются забыть о том, что произошло с ними в Капитолии. Но президент Сноу, диктатор государства Панем, и его клика не готовы оставить девушку и парня в покое, считая их опасными. Власти решают устроить показательные Игры, в которых примут участие победители прошлых лет от каждого дистрикта. Жребий брошен: Китнисс и Пит вынуждены вернуться на Арену. Вновь они лицом к лицу со смертью — ради своих близких, ради своего будущего, ради своей любви!
    Deion: Сумев выжить на безжалостных Голодных играх, Китнисс Эвердин и Пит Мелларк тщетно пытаются забыть о том, что произошло с ними в Капитолии. Но президент Сноу, диктатор государства Панем, и его клика не готовы оставить девушку и парня в покое.
    Release Date: 2013-11-22T08:00:00Z
    Genre: Action Adventure
    Comments: Помни, кто твой настоящий враг
    Artist: Francis Lawrence
    Name: Голодные игры: И вспыхнет пламя
    x264

    x264 info: frame I:3554 Avg QP:18.04 size: 23186
    x264 info: frame P:206826 Avg QP:20.15 size: 8080
    x264 info: mb I I16..4: 35.4% 0.0% 64.6%
    x264 info: mb P I16..4: 1.4% 0.0% 2.2% P16..4: 50.7% 16.7% 8.7% 1.5% 0.7% skip:18.1%
    x264 info: coded y,uvDC,uvAC intra: 54.6% 65.7% 39.6% inter: 36.5% 29.8% 16.0%
    x264 info: i16 v,h,dc,p: 45% 16% 9% 30%
    x264 info: i4 v,h,dc,ddl,ddr,vr,hd,vl,hu: 35% 13% 14% 6% 7% 8% 6% 6% 4%
    x264 info: i8c dc,h,v,p: 56% 14% 23% 7%
    x264 info: ref P L0: 75.1% 24.9%
    x264 info: kb/s:1598.73




    Залил: gekka
    Размер скачиваемого торрента: 1.93 GB (2073385642 Bytes)

    Голодные игры: И вспыхнет пламя / The Hunger Games: Catching Fire (2013) BDRip-AVC | iPhone | D торрент скачать бесплатно
    загрузка...
    Рейтинг →
     (голосов: 1, оценка 4/5, голосовать можно 1 раз )

    Другие торренты по теме:

  • Голодные игры / The Hunger Games (2012) HDRip
  • Сьюзен Коллинз / Suzanne Collins - Голодные игры (2010-2011) fb2
  • Голодные игры: И вспыхнет пламя / The Hunger Games: Catching Fire (2013) HD 1080p | Трейлер-тизер
  • Голодные игры (2013) SATRip
  • OST - Голодные игры / The Hunger Games (2012) MP3 скачать через торрент бесплатно
  • Пусть говорят - Голодные игры (2013) HDTVRip от MediaClub скачать через торрент бесплатно
  • OST - Голодные игры: И вспыхнет пламя / Hunger Games: Catching Fire (2013) MP3
  • Голодные игры: И вспыхнет пламя / The Hunger Games: Catching Fire (2013) DCPrip | Трейлер


    • Комментарии (0):

      Информация

      Информация

        Посетители, находящиеся в группе Гости, не могут оставлять комментарии в данной новости.

        ↓ Меню



        ↓ Опрос

        А Вы добавили сайт в закладки?
        Да
        Не


        Top 10 за месяц (Фильмы)