.
Авторизация | Регистрация
Хочешь лучшие торренты? Добавь свой email!
Добавить
» » Мошенничество / Swindle (2013) WEB-DLRip от Deadmauvlad | D | Disney торрент скачать бесплатно




    Мошенничество / Swindle (2013) WEB-DLRip от Deadmauvlad | D | Disney торрент скачать бесплатно

    Опубликовал: Админ | Дата: 27-02-2015, 11:10 | Просмотров: 273


    Детально о кино
    Русское название: Мошенничество
    Русское название в мировом прокате: Swindle
    Создали в: 2013
    Категория жанра: Комедия, Приключения
    Главный режиссер: Джонатан Джадж / Jonathan Judge
    Актеры: Дженнет МакКарди, Ной Кроуфорд, Крис О’Нил, Сиэра Браво, Фред Эвануик, Сэнди Робсон, Ариана Гранде, Ной Манк, Фейн Тсе, Маттео Стефан

    Сюжет фильма:
    Бен и Гриффин находят старую бейсбольную карточку Хонуса Вагнера и решают продать её, чтобы Бену не пришлось выселяться из своего дома. Они отправляются в магазин для коллекционеров, которым владеет парень по имени Мошеннилл. После долгих торгов хозяин магазина соглашается заплатить ребятам за карточку 300 долларов. Гордясь собой, ребята отправляются домой, но позже они узнают, что эта карточка стоит намного больше — на целых 1,2 миллиона. Гриффина и Бена обманули. Теперь Гриффин Бинг хочет обмануть самого мошенника и вернуть себе карточку, которой тот завладел столь нечестным образом. Всеобщий любимец, он собирает команду, чтобы провернуть свою затею…



    Снималось в: США
    Время просмотра: 01:31:55
    Перевод текста: Профессиональный (полное дублирование)
    Файл
    Кодек для видео: XviD, AVI
    Качество фильма: WEB-DLRip (HDRip) | Swindle.2013.1080p.WEB-DL | Спасибо sobmaster Semple.avi
    Информация о видео: 720x400 (1.80:1), 23.976 fps, XviD build 73 ~1000 kbps avg, 0.14 bit/pixel
    Информация о звуке: 48 kHz, MPEG Layer 3, 2 ch, ~128.00 kbps avg
    MI
    Общее
    Полное имя : D:Рипы выкладка DeadmauvladРипы готовыеSwindle.2013.WEB-DLRip.Deadmauvlad.D.Disney.avi
    Формат : AVI
    Формат/Информация : Audio Video Interleave
    Размер файла : 748 Мбайт
    Продолжительность : 1 ч. 31 м.
    Общий поток : 1138 Кбит/сек
    Название фильма : Swindle.2013.WEB-DLRip.Deadmauvlad.D.Disney
    Режиссёр : Deadmauvlad
    Жанр : Подростковое кино
    Программа кодирования : VirtualDubMod 1.5.10.3 | www.virtualdub-fr.org || (build 2550/release)
    Формат оригинала/Имя : Фильм

    Видео
    Идентификатор : 0
    Формат : MPEG-4 Visual
    Профиль формата : Advanced Simple@L5
    Параметр BVOP формата : 1
    Параметр QPel формата : Нет
    Параметр GMC формата : Без точки перехода
    Параметр матрицы формата : Выборочная
    Идентификатор кодека : XVID
    Идентификатор кодека/Подсказка : XviD
    Продолжительность : 1 ч. 31 м.
    Битрейт : 1001 Кбит/сек
    Ширина : 720 пикселей
    Высота : 400 пикселей
    Соотношение сторон : 16:9
    Частота кадров : 23,976 кадра/сек
    Цветовое пространство : YUV
    Субдискретизация насыщенности : 4:2:0
    Битовая глубина : 8 бит
    Тип развёртки : Прогрессивная
    Метод сжатия : С потерями
    Бит/(Пиксели*Кадры) : 0.145
    Размер потока : 658 Мбайт (88%)
    Библиотека кодирования : XviD 73

    Аудио
    Идентификатор : 1
    Формат : MPEG Audio
    Версия формата : Version 1
    Профиль формата : Layer 3
    Режим : Joint stereo
    Расширение режима : MS Stereo
    Идентификатор кодека : 55
    Идентификатор кодека/Подсказка : MP3
    Продолжительность : 1 ч. 31 м.
    Вид битрейта : Постоянный
    Битрейт : 128 Кбит/сек
    Каналы : 2 канала
    Частота : 48,0 КГц
    Метод сжатия : С потерями
    Размер потока : 84,2 Мбайт (11%)
    Выравнивание : Соединение по промежуткам
    Продолжительность промежутка : 42 мс. (1,00 видеокадр)
    Время предзагрузки промежутка : 504 мс.
    Библиотека кодирования : LAME3.99r
    Залил: DJ_V.K_TV
    Размер скачиваемого торрента: 748.27 MB (784621568 Bytes)


    Мошенничество / Swindle (2013) WEB-DLRip от Deadmauvlad | D | Disney торрент скачать бесплатно
    загрузка...
    Рейтинг →
     (голосов: 1, оценка 5/5, голосовать можно 1 раз )

    Другие торренты по теме:



      Комментарии (0):

      Информация

      Информация

        Посетители, находящиеся в группе Гости, не могут оставлять комментарии в данной новости.

        ↓ Меню



        ↓ Опрос

        А Вы добавили сайт в закладки?
        Да
        Не


        Top 10 за месяц (Фильмы)