.
Авторизация | Регистрация
» » Расчёт / The Clearing (2004) BDRip 720p by msltel | P, A торрент скачать бесплатно




    Расчёт / The Clearing (2004) BDRip 720p by msltel | P, A торрент скачать бесплатно

    Опубликовал: Админ | Дата: 27-02-2015, 11:10 | Просмотров: 195



    Русское название: Расчёт
    Русское название в мировом прокате: The Clearing
    Категория жанра: Триллер, драма, криминал
    Снималось в: США, Германия, Fox Searchlight Pictures, Thousand Words, Wildwood Enterprises
    Главный режиссер: Питер Жан Брюгге
    Актеры: Роберт Редфорд, Хелен Миррен, Уиллем Дефо, Алессандро Нивола, Мэтт Крэвен, Мелисса Сейджмиллер, Венди Крюсон, Ларри Пайн, Дайана Скаруид, Элизабет Руссо, Сара Коскофф, Грасиэла Марин, Майк Пневски, Джофф МакНайт, Одри Василевски, Питер Гэннон, Мэтт Миллер, Марк Эмери Мур, Джоэль Нанли

    Сюжет фильма: Уэйн и Эйлин Хэйес — образцовая американская семья. У них двое прекрасных детей и вполне успешный бизнес, который они поднимали вместе с нуля. Но жизнь уготовила супружеской паре суровое испытание. Однажды Уэйна похищают. Человек, спрятавший его в лесу, обычный обыватель Арнольд Мэк, находящийся на грани отчаяния и уставший от безденежья и нищеты, решил получить большой выкуп…

    Качество фильма: BDRip 720p
    Размер скачиваемого торрента: 5.31 ГБ
    Время просмотра: 01:34:26

    Информация о видео: MPEG-4 AVC, 4665 Кбит/с, 1280x694
    Информация о звуке 1: русский, 48 kHz, AC3, 6 ch, 448 kbps avg, Профессиональный многоголосый
    Информация о звуке 2: русский, 48 kHz, AC3, 2 ch, 192 kbps avg, Авторский, Евгений Гранкин
    Информация о звуке 3: русский, 48 kHz, AC3, 6 ch, 448 kbps avg, Авторский, Сергей Визгунов

    Внешние файлы
    Информация о звуке: русский, 48 kHz, DTS, 6 ch, 1509 kbps avg, Авторский, Сергей Визгунов
    Информация о звуке: английский, 48 kHz, AC3, 6 ch, 448 kbps avg, Оригинал
    Информация о звуке: английский, 48 kHz, AC3, 2 ch, 224 kbps avg, комментарий
    Субтитры: русские
    Субтитры: английские (для слабослышащих)

    Исходник: bodia92 (Кинозал)

    Сравнение с исходником



    MediaInfo Лог х264
    Общее
    Полное имя : D:VideoRaschet.2004.x264.BDRip.720pRaschet.2004.AVO.rus.С.Визгунов.dts
    Формат : DTS
    Формат/Информация : Digital Theater Systems
    Размер файла : 1019 Мбайт
    Продолжительность : 1 ч. 34 м.
    Режим общего битрейта : Постоянный
    Общий поток : 1509 Кбит/сек

    Аудио
    Формат : DTS
    Формат/Информация : Digital Theater Systems
    Режим : 16
    Параметр Endianness формата : Big
    Продолжительность : 1 ч. 34 м.
    Вид битрейта : Постоянный
    Битрейт : 1509 Кбит/сек
    Каналы : 6 каналов
    Расположение каналов : Front: L C R, Side: L R, LFE
    Частота : 48,0 КГц
    Битовая глубина : 24 бит
    Метод сжатия : С потерями
    Размер потока : 1019 Мбайт (100%)

    Общее
    Полное имя : D:VideoRaschet.2004.x264.BDRip.720pRaschet.2004.Commentary.eng.ac3
    Формат : AC-3
    Формат/Информация : Audio Coding 3
    Размер файла : 151 Мбайт
    Продолжительность : 1 ч. 34 м.
    Режим общего битрейта : Постоянный
    Общий поток : 224 Кбит/сек

    Аудио
    Формат : AC-3
    Формат/Информация : Audio Coding 3
    Расширение режима : CM (complete main)
    Параметр Endianness формата : Big
    Продолжительность : 1 ч. 34 м.
    Вид битрейта : Постоянный
    Битрейт : 224 Кбит/сек
    Каналы : 2 канала
    Расположение каналов : Front: L R
    Частота : 48,0 КГц
    Битовая глубина : 16 бит
    Метод сжатия : С потерями
    Размер потока : 151 Мбайт (100%)

    Общее
    Полное имя : D:VideoRaschet.2004.x264.BDRip.720pRaschet.2004.eng.SDH.srt
    Размер файла : 115 Кбайт

    Общее
    Полное имя : D:VideoRaschet.2004.x264.BDRip.720pRaschet.2004.Original.eng.ac3
    Формат : AC-3
    Формат/Информация : Audio Coding 3
    Размер файла : 303 Мбайт
    Продолжительность : 1 ч. 34 м.
    Режим общего битрейта : Постоянный
    Общий поток : 448 Кбит/сек

    Аудио
    Формат : AC-3
    Формат/Информация : Audio Coding 3
    Расширение режима : CM (complete main)
    Параметр Endianness формата : Big
    Продолжительность : 1 ч. 34 м.
    Вид битрейта : Постоянный
    Битрейт : 448 Кбит/сек
    Каналы : 6 каналов
    Расположение каналов : Front: L C R, Side: L R, LFE
    Частота : 48,0 КГц
    Битовая глубина : 16 бит
    Метод сжатия : С потерями
    Размер потока : 303 Мбайт (100%)

    Общее
    Полное имя : D:VideoRaschet.2004.x264.BDRip.720pRaschet.2004.rus.srt
    Размер файла : 107 Кбайт

    Общее
    Уникальный идентификатор : 250703550574952596762498289549742082180 (0xBC9BBF5D94303E159FE5C2B98BD28884)
    Полное имя : D:VideoRaschet.2004.x264.BDRip.720pRaschet.2004.x264.BDRip.720p.mkv
    Формат : Matroska
    Версия формата : Version 4 / Version 2
    Размер файла : 3,87 Гбайт
    Продолжительность : 1 ч. 34 м.
    Общий поток : 5870 Кбит/сек
    Дата кодирования : UTC 2014-03-09 04:13:48
    Программа кодирования : mkvmerge v6.7.0 (;Back to the Ground;) 64bit built on Jan 8 2014 15:10:52
    Библиотека кодирования : libebml v1.3.0 libmatroska v1.4.1

    Видео
    Идентификатор : 1
    Формат : AVC
    Формат/Информация : Advanced Video Codec
    Профиль формата : High@L4.1
    Параметр CABAC формата : Да
    Параметр ReFrames формата : 9 кадров
    Идентификатор кодека : V_MPEG4/ISO/AVC
    Продолжительность : 1 ч. 34 м.
    Битрейт : 4665 Кбит/сек
    Ширина : 1280 пикселей
    Высота : 694 пикселя
    Соотношение сторон : 1,85:1
    Режим частоты кадров : Постоянный
    Частота кадров : 23,976 кадра/сек
    Цветовое пространство : YUV
    Субдискретизация насыщенности : 4:2:0
    Битовая глубина : 8 бит
    Тип развёртки : Прогрессивная
    Бит/(Пиксели*Кадры) : 0.219
    Размер потока : 3,08 Гбайт (79%)
    Заголовок : BDRip -- STarankov
    Библиотека кодирования : x264 core 138 r2358 9e941d1
    Залил: msltel
    Размер скачиваемого торрента: 5.31 GB (5702779854 Bytes)


    Расчёт / The Clearing (2004) BDRip 720p by msltel | P, A торрент скачать бесплатно
    загрузка...
    Рейтинг →
     (голосов: 1, оценка 3/5, голосовать можно 1 раз )

    Другие торренты по теме:

  • Расчёт / The Clearing (2004) BDRip by msltel | P, A торрент скачать бесплатно
  • Расчёт / The Clearing (2004) BDRip 1080p by msltel | P, A скачать через торрент бесплатно
  • Мой боевой расчёт / 1987 / РУ / DVDRip скачать торрент бесплатно


    • Комментарии (0):

      Информация

      Информация

        Посетители, находящиеся в группе Гости, не могут оставлять комментарии в данной новости.

        ↓ Меню



        ↓ Опрос

        А Вы добавили сайт в закладки?
        Да
        Не


        Top 10 за неделю (Фильмы)