.
Авторизация | Регистрация
Хочешь лучшие торренты? Добавь свой email!
Добавить




Розыск (2013) DVDRip от NovaLan торрент скачать бесплатно

Опубликовал: Админ | Дата: 27-02-2015, 11:10 | Просмотров: 246





Снималось в: Россия
Создали в: ООО АЛЬЯНС ПРОФИ
Категория жанра: Детектив
Создали в: 2013

Время просмотра: 32 х ~ 00:44:00


Язык: Русский

Главный режиссер: Андрей Линич, Рустам Мосафир


Актеры: Сергей Борисов, Роман Богданов, Алексей Фаддеев, Василий Шмаков, Рамиль Сабитов, Сергей Векслер, Татьяна Косач-Брындина, Олег Доброван, Прохор Зикора, Марина Черняева, Александр Пальчиков, Елена Старостина, Алексей Зуев, Алексей Лунев, Андрей Железный, Сергей Калашников, Руслан Ягудин, Софья Максимча, Мария Буравлева, Юрий Горин, Александр Самойленко


Сюжет: Главный герой сериала – Денис Попов. Он возглавляет работу уголовного розыска в одном из Отделов внутренних дел Москвы. Коллеги Дениса – оперативники Лукин, Могилин и Жуков давно стали сплоченной командой и во всем поддерживают своего шефа - опытного, справедливого, талантливого сыщика. У него рука не дрогнет, нервы не сдадут, а преступник будет найден! Иногда он может сорваться, может послать, а то и врезать, но это его земля, и здесь действуют его правила. Сотрудники отдела Попова расследуют не самые резонансные дела; их уровень – это бытовые убийства, грабежи, разбои и кражи - то, что может случиться с каждым. Сыщики - обыкновенные, узнаваемые и не слишком счастливые в личной жизни люди, потому что главное в их жизни – розыск, и ради поиска преступников они порой совсем забывают о себе...



Исходник: DVD9 R5

Тип релиза: DVDRip

Контейнер: AVI


Информация о видео: XviD, ~ 1383 Кбит/с, 720х400
Информация о звуке: АС3, 2 ch, 96 Кбит/с



MediaInfo
Общее
Полное имя : D:1АААРОЗЫСК 1-212 серия.avi
Формат : AVI
Формат/Информация : Audio Video Interleave
Размер файла : 471 Мбайт
Продолжительность : 43 м.
Общий поток : 1528 Кбит/сек
Программа кодирования : VirtualDubMod 1.5.10.3 | www.virtualdub-fr.org || (build 2550/release)
Библиотека кодирования : VirtualDubMod build 2550/release

Видео
Идентификатор : 0
Формат : MPEG-4 Visual
Профиль формата : Advanced Simple@L5
Параметр BVOP формата : 2
Параметр QPel формата : Нет
Параметр GMC формата : Без точки перехода
Параметр матрицы формата : Default (MPEG)
Режим смешивания : Сжатый битовый поток
Идентификатор кодека : XVID
Идентификатор кодека/Подсказка : XviD
Продолжительность : 43 м.
Битрейт : 1423 Кбит/сек
Ширина : 720 пикселей
Высота : 400 пикселей
Соотношение сторон : 16:9
Частота кадров : 23,976 кадра/сек
Цветовое пространство : YUV
Субдискретизация насыщенности : 4:2:0
Битовая глубина : 8 бит
Тип развёртки : Прогрессивная
Метод сжатия : С потерями
Бит/(Пиксели*Кадры) : 0.206
Размер потока : 438 Мбайт (93%)
Библиотека кодирования : XviD 1.2.1 (UTC 2008-12-04)

Аудио
Идентификатор : 1
Формат : AC-3
Формат/Информация : Audio Coding 3
Расширение режима : CM (complete main)
Параметр Endianness формата : Big
Идентификатор кодека : 2000
Продолжительность : 43 м.
Вид битрейта : Постоянный
Битрейт : 96,0 Кбит/сек
Каналы : 2 канала
Расположение каналов : Front: L R
Частота : 48,0 КГц
Битовая глубина : 16 бит
Метод сжатия : С потерями
Размер потока : 29,6 Мбайт (6%)
Выравнивание : Разделение по промежуткам
Продолжительность промежутка : 42 мс. (1,00 видеокадр)
Время предзагрузки промежутка : 500 мс.







Скриншоты для ознакомления




Релиз группа:

Автор рипа:
Залил: YArl
Размер скачиваемого торрента: 14.72 GB (15805050880 Bytes)

Розыск (2013) DVDRip от NovaLan торрент скачать бесплатно
загрузка...
Рейтинг →
 (голосов: 1, оценка 3/5, голосовать можно 1 раз )

Другие торренты по теме:



    Комментарии (0):

    Информация

    Информация

      Посетители, находящиеся в группе Гости, не могут оставлять комментарии в данной новости.

      ↓ Меню



      ↓ Опрос

      А Вы добавили сайт в закладки?
      Да
      Не


      Top 10 за месяц (Фильмы)