.
Авторизация | Регистрация
» » Дом конца времён / Дом в конце времен / La casa del fin de los tiempos / The House of the End Times (2013) BDRip 720p от CINEMANIA | L1 скачать через торрент бесплатно




    Дом конца времён / Дом в конце времен / La casa del fin de los tiempos / The House of the End Times (2013) BDRip 720p от CINEMANIA | L1 скачать через торрент бесплатно

    Опубликовал: Админ | Дата: 27-02-2015, 11:10 | Просмотров: 178



    Детально о кино
    Русское название: Дом конца времён / Дом в конце времен
    Русское название в мировом прокате: La casa del fin de los tiempos / The House of the End Times
    Создали в: 2013
    Категория жанра: мистика, триллер
    Главный режиссер: Алехандро Идальго
    Актеры: Рудди Родригес, Гонсало Куберо, Росмель Бустаманте, Эктор Меркадо, Гильермо Гарсия

    Сюжет фильма:
    Дусилье — простая женщина, проживающая спокойной и тихой жизнью в большом старом доме, вместе со своим супругом и сыном. Однажды ночью в их доме происходит нечто страшное, что приводит к смерти ее членов семьи. Полиция, осмотрев место преступления, обвиняет женщину в двойном убийстве, после чего суд приговаривает ее к тридцати годам лишения свободы. Отсидев долгие десятилетия за решеткой, Дусилье все же выходит на свободу. Несмотря на страшные воспоминания, она возвращается в тот самый дом, в котором погибли ее муж и ребенок. Главная ее задача — разобраться в том, что же произошло той кошмарной ночью...



    Снималось в: Венесуэла
    Время просмотра: 01:40:54
    Тип перевода: Любительское (одноголосое) barin101

    Файл
    Тип видео: MKV
    Качество фильма: BDRip 720p PHD
    Информация о видео: 4558 kb/s, 1280х720
    Информация о звуке: Russian: AC3, 192 kb/s (2 ch) / Spanish: DTS, 1510 kb/s (6 ch)
    Субтитры: English
    Дополнительно: Сохранены оригинальные чаптеры как на Blu-Ray
    Размер скачиваемого торрента: 4.50 Gb
    Скачать: Сэмпл

    Релиз группы:




    NFO
    Общее
    The.House.Of.The.End.Times.2013.Blu.Ray.720p.CINEMANIA.mkv
    Формат : Matroska
    Версия формата : Version 4 / Version 2
    Размер файла : 4,50 Гбайт
    Продолжительность : 1 ч. 40 м.
    Общий поток : 6386 Кбит/сек
    Название фильма : Release Group CINEMANIA
    Дата кодирования : UTC 2014-03-10 21:00:44
    Программа кодирования : mkvmerge v6.8.0 (;Theme for Great Cities;) 64bit built on Mar 2 2014 21:34:26
    Библиотека кодирования : libebml v1.3.0 libmatroska v1.4.1

    Видео
    Идентификатор : 1
    Формат : AVC
    Формат/Информация : Advanced Video Codec
    Профиль формата : High@L4.1
    Параметр CABAC формата : Да
    Параметр ReFrames формата : 5 кадров
    Идентификатор кодека : V_MPEG4/ISO/AVC
    Продолжительность : 1 ч. 40 м.
    Битрейт : 4558 Кбит/сек
    Ширина : 1280 пикселей
    Высота : 720 пикселей
    Соотношение сторон : 16:9
    Режим частоты кадров : Постоянный
    Частота кадров : 23,976 кадра/сек
    Цветовое пространство : YUV
    Субдискретизация насыщенности : 4:2:0
    Битовая глубина : 8 бит
    Тип развёртки : Прогрессивная
    Бит/(Пиксели*Кадры) : 0.206
    Размер потока : 3,21 Гбайт (71%)
    Заголовок : Release Group CINEMANIA
    Язык : English
    Default : Да
    Forced : Нет

    Аудио #1
    Идентификатор : 2
    Формат : AC-3
    Формат/Информация : Audio Coding 3
    Расширение режима : CM (complete main)
    Параметр Endianness формата : Big
    Идентификатор кодека : A_AC3
    Продолжительность : 1 ч. 40 м.
    Вид битрейта : Постоянный
    Битрейт : 192 Кбит/сек
    Каналы : 2 канала
    Расположение каналов : Front: L R
    Частота : 48,0 КГц
    Битовая глубина : 16 бит
    Метод сжатия : С потерями
    Размер потока : 139 Мбайт (3%)
    Заголовок : Barin101
    Язык : Russian
    Default : Да
    Forced : Да

    Аудио #2
    Идентификатор : 3
    Формат : DTS
    Формат/Информация : Digital Theater Systems
    Режим : 16
    Параметр Endianness формата : Big
    Идентификатор кодека : A_DTS
    Продолжительность : 1 ч. 40 м.
    Вид битрейта : Постоянный
    Битрейт : 1509 Кбит/сек
    Каналы : 6 каналов
    Расположение каналов : Front: L C R, Side: L R, LFE
    Частота : 48,0 КГц
    Битовая глубина : 24 бит
    Метод сжатия : С потерями
    Размер потока : 1,06 Гбайт (24%)
    Язык : Spanish
    Default : Нет
    Forced : Нет

    Текст
    Идентификатор : 4
    Формат : UTF-8
    Идентификатор кодека : S_TEXT/UTF8
    Идентификатор кодека/Информация : UTF-8 Plain Text
    Язык : English
    Default : Нет
    Forced : Нет

    Меню
    00:00:00.000 : en:00:00:00.000
    00:10:51.776 : en:00:10:51.776
    00:23:40.002 : en:00:23:40.002
    00:37:03.763 : en:00:37:03.763
    00:48:39.125 : en:00:48:39.125
    01:03:32.767 : en:01:03:32.767
    01:14:57.785 : en:01:14:57.785
    01:29:37.497 : en:01:29:37.497

    Залил: DGEKIGAN
    Размер скачиваемого торрента: 4.50 GB (4836004898 Bytes)

    Дом конца времён / Дом в конце времен / La casa del fin de los tiempos / The House of the End Times (2013) BDRip 720p от CINEMANIA | L1 скачать через торрент бесплатно
    загрузка...
    Рейтинг →
     (голосов: 1, оценка 3/5, голосовать можно 1 раз )

    Другие торренты по теме:

  • Дом конца времён / Дом в конце времен / La casa del fin de los tiempos / The House of the End Times (2013) BDRip 1080p от CINEMANIA | L1 скачать через торрент бесплатно
  • Дом в конце времен / Дом конца времён / La casa del fin de los tiempos / The House of the End Times (2013) HDRip-AVC от Leo.pard | L1 торрент скачать бесплатно
  • Дом в конце времен / Дом конца времён / La casa del fin de los tiempos / The House of the End Times (2013) HDRip от Scarabey скачать через торрент бесплатно
  • Дом в конце улицы / House at the End of the Street (2012) BDRip 720p торрент скачать бесплатно
  • Дом в конце времен / La casa del fin de los tiempos (2013) HDRip | L1 торрент скачать бесплатно
  • Дом в конце времен / La casa del fin de los tiempos (2013) DVDRip | L1 торрент скачать бесплатно
  • Дом в конце улицы / House at the End of the Street (2012) BDRip-AVC от Leonardo and Scarabey | Театральная версия | Лицензия скачать через торрент бесплатно
  • Дом в конце улицы / House at the End of the Street (2012) BDRemux 1080p | UNRATED скачать через торрент бесплатно


    • Комментарии (0):

      Информация

      Информация

        Посетители, находящиеся в группе Гости, не могут оставлять комментарии в данной новости.

        ↓ Меню



        ↓ Опрос

        А Вы добавили сайт в закладки?
        Да
        Не


        Top 10 за неделю (Фильмы)