.
Авторизация | Регистрация
» » Несносный дед / Jackass Presents: Bad Grandpa (2013) BDRip 720p от GORESEWAGE | Unrated | PM, A скачать через торрент бесплатно




    Несносный дед / Jackass Presents: Bad Grandpa (2013) BDRip 720p от GORESEWAGE | Unrated | PM, A скачать через торрент бесплатно

    Опубликовал: Админ | Дата: 27-02-2015, 11:10 | Просмотров: 243



    Несносный дед / Jackass Presents: Bad Grandpa

    Создали в: 2013
    Снималось в: США
    Категория жанра: комедия
    Время просмотра: 01:42:13
    Перевод текста 1: Профессиональный (многоголосый закадровый) BaibaKo
    Перевод текста 2: Авторский (одноголосый закадровый) Антон Карповский
    Оригинальная аудиодорожка: English
    Субтитры: Russian (Full), English (Full, SDH, SDH Colored), Dutch (Full), Greek (Full), French (Full), Portuguese (Full), Spanish (Full), Swedish (Full)
    Киностудия: Dickhouse Productions, MTV Films

    Главный режиссёр: Джефф Треймейн / Jeff Tremaine

    Актеры: Джонни Ноксвил, Джексон Николл, Грег Харрис, Джорджина Кэйтс, Камбер Хейлик, Джилл Килл, Мэдисон Дэвис, Джордж Фонан, Грэси Мерседес, Мэрилинн Эллейн и др.

    Сюжет: 86-летний старикан по имени Ирвинг Зисман путешествует по Америке с необычным компаньоном - восьмилетним внуком Билли.

    По дороге заводной дедушка знакомит впечатлительного Билли с людьми, местами и ситуациями, которые вряд ли укладываются в рамки привычных представлений о воспитании. Парочка столкнется со стриптизерами, разъярёнными участниками помпезного детского конкурса красоты и их не менее злыми мамашами, скорбящими посетителями панихиды, завсегдатаями бара для байкеров и другими ничего не подозревающими гражданами США.



    Sample

    Качество фильма: BDRip 720p (EbP)
    Контейнер: MKV
    Информация о видео кодек: MPEG-4 AVC Video
    Информация о звуке кодек: DTS / AC3
    Информация о видео: MPEG-4 AVC Video / 9000 kbps / 1280x720p / 23,976 fps / 16:9 / High Profile 4.1
    Информация о звуке 1: Russian / AC3 / 5.1 / 48 kHz / 384 kbps / 16-bit | MVO BaibaKo
    Информация о звуке 2: Russian / DTS / 5.1 / 48 kHz / 1536 kbps / 24-bit | AVO Антон Карповский
    Информация о звуке 3: Russian / AC3 / 5.1 / 48 kHz / 640 kbps / 16-bit | AVO Антон Карповский
    Информация о звуке 4: English / DTS / 5.1 / 48 kHz / 1536 kbps / 24-bit | Original
    Информация о звуке 5: English / AC3 / 5.1 / 48 kHz / 640 kbps / 16-bit | Original
    Информация о звуке 6: English / AC3 / 5.1 / 48 kHz / 640 kbps / 16-bit | Descriрtion
    Навигация по главам: да

    Screens

    MediaInfo
    C:/GORESEWAGE/Jackass Presents Bad Grandpa 2013 Unrated BDRip 720p GORESEWAGE.mkv
    General
    Unique ID : 228021289722030732108637591033747700599 (0xAB8B4D905108C6488DCF8A6164317B77)
    Complete name : C:/GORESEWAGE/Jackass Presents Bad Grandpa 2013 Unrated BDRip 720p GORESEWAGE.mkv
    Format : Matroska
    Format version : Version 4 / Version 2
    File size : 10.2 GiB
    Duration : 1h 42mn
    Overall bit rate : 14.3 Mbps
    Movie name : Jackass Presents: Bad Grandpa 2013 Unrated BDRip 720p GORESEWAGE
    Encoded date : UTC 2014-03-10 11:22:55
    Writing application : mkvmerge v6.8.0 (;Theme for Great Cities;) 64bit built on Mar 2 2014 21:34:26
    Writing library : libebml v1.3.0 libmatroska v1.4.1
    Attachment : Yes
    Video #1
    ID : 1
    Format : AVC
    Format/Info : Advanced Video Codec
    Format profile : High@L4.1
    Format settings, CABAC : Yes
    Format settings, ReFrames : 9 frames
    Codec ID : V_MPEG4/ISO/AVC
    Duration : 1h 42mn
    Bit rate : 9 000 Kbps
    Width : 1 280 pixels
    Height : 720 pixels
    Display aspect ratio : 16:9
    Frame rate mode : Constant
    Frame rate : 23.976 fps
    Color space : YUV
    Chroma subsampling : 4:2:0
    Bit depth : 8 bits
    Scan type : Progressive
    Bits/(Pixel*Frame) : 0.407
    Stream size : 6.23 GiB (61%)
    Title : Jackass Presents: Bad Grandpa 2013 Unrated BDRip 720p GORESEWAGE
    Writing library : x264 core 133 r2334 a3ac64b
    Encoding settings : cabac=1 / ref=9 / deblock=1:-3:-3 / analyse=0x3:0x113 / me=umh / subme=9 / psy=1 / psy_rd=1.05:0.00 / mixed_ref=1 / me_range=16 / chroma_me=1 / trellis=2 / 8x8dct=1 / cqm=0 / deadzone=21,11 / fast_pskip=0 / chroma_qp_offset=-2 / threads=3 / lookahead_threads=1 / sliced_threads=0 / nr=0 / decimate=0 / interlaced=0 / bluray_compat=0 / constrained_intra=0 / bframes=10 / b_pyramid=2 / b_adapt=2 / b_bias=0 / direct=3 / weightb=1 / open_gop=0 / weightp=2 / keyint=250 / keyint_min=23 / scenecut=40 / intra_refresh=0 / rc=2pass / mbtree=0 / bitrate=9000 / ratetol=1.0 / qcomp=0.65 / qpmin=0 / qpmax=69 / qpstep=4 / cplxblur=20.0 / qblur=0.5 / ip_ratio=1.40 / pb_ratio=1.30 / aq=1:0.65
    Language : English
    Default : Yes
    Forced : No
    Audio #2
    ID : 2
    Format : AC-3
    Format/Info : Audio Coding 3
    Mode extension : CM (complete main)
    Format settings, Endianness : Big
    Codec ID : A_AC3
    Duration : 1h 42mn
    Bit rate mode : Constant
    Bit rate : 384 Kbps
    Channel count : 6 channels
    Channel positions : Front: L C R, Side: L R, LFE
    Sampling rate : 48.0 KHz
    Bit depth : 16 bits
    Compression mode : Lossy
    Stream size : 281 MiB (3%)
    Title : MVO BaibaKo
    Language : Russian
    Default : Yes
    Forced : No
    Audio #3
    ID : 3
    Format : DTS
    Format/Info : Digital Theater Systems
    Mode : 16
    Format settings, Endianness : Big
    Codec ID : A_DTS
    Duration : 1h 42mn
    Bit rate mode : Constant
    Bit rate : 1 509 Kbps
    Channel count : 6 channels
    Channel positions : Front: L C R, Side: L R, LFE
    Sampling rate : 48.0 KHz
    Bit depth : 24 bits
    Compression mode : Lossy
    Stream size : 1.08 GiB (11%)
    Title : AVO Антон Карповский
    Language : Russian
    Default : No
    Forced : No
    Audio #4
    ID : 4
    Format : AC-3
    Format/Info : Audio Coding 3
    Mode extension : CM (complete main)
    Format settings, Endianness : Big
    Codec ID : A_AC3
    Duration : 1h 42mn
    Bit rate mode : Constant
    Bit rate : 640 Kbps
    Channel count : 6 channels
    Channel positions : Front: L C R, Side: L R, LFE
    Sampling rate : 48.0 KHz
    Bit depth : 16 bits
    Compression mode : Lossy
    Stream size : 468 MiB (4%)
    Title : AVO Антон Карповский
    Language : Russian
    Default : No
    Forced : No
    Audio #5
    ID : 5
    Format : DTS
    Format/Info : Digital Theater Systems
    Mode : 16
    Format settings, Endianness : Big
    Codec ID : A_DTS
    Duration : 1h 42mn
    Bit rate mode : Constant
    Bit rate : 1 509 Kbps
    Channel count : 6 channels
    Channel positions : Front: L C R, Side: L R, LFE
    Sampling rate : 48.0 KHz
    Bit depth : 24 bits
    Compression mode : Lossy
    Stream size : 1.08 GiB (11%)
    Title : Original
    Language : English
    Default : No
    Forced : No
    Audio #6
    ID : 6
    Format : AC-3
    Format/Info : Audio Coding 3
    Mode extension : CM (complete main)
    Format settings, Endianness : Big
    Codec ID : A_AC3
    Duration : 1h 42mn
    Bit rate mode : Constant
    Bit rate : 640 Kbps
    Channel count : 6 channels
    Channel positions : Front: L C R, Side: L R, LFE
    Sampling rate : 48.0 KHz
    Bit depth : 16 bits
    Compression mode : Lossy
    Stream size : 468 MiB (4%)
    Title : Original
    Language : English
    Default : No
    Forced : No
    Audio #7
    ID : 7
    Format : AC-3
    Format/Info : Audio Coding 3
    Mode extension : CM (complete main)
    Format settings, Endianness : Big
    Codec ID : A_AC3
    Duration : 1h 42mn
    Bit rate mode : Constant
    Bit rate : 640 Kbps
    Channel count : 6 channels
    Channel positions : Front: L C R, Side: L R, LFE
    Sampling rate : 48.0 KHz
    Bit depth : 16 bits
    Compression mode : Lossy
    Stream size : 468 MiB (4%)
    Title : Descriрtion
    Language : English
    Default : No
    Forced : No
    Text #8
    ID : 8
    Format : UTF-8
    Codec ID : S_TEXT/UTF8
    Codec ID/Info : UTF-8 Plain Text
    Title : Full
    Language : Russian
    Default : No
    Forced : No
    Text #9
    ID : 9
    Format : UTF-8
    Codec ID : S_TEXT/UTF8
    Codec ID/Info : UTF-8 Plain Text
    Title : Full
    Language : English
    Default : No
    Forced : No
    Text #10
    ID : 10
    Format : UTF-8
    Codec ID : S_TEXT/UTF8
    Codec ID/Info : UTF-8 Plain Text
    Title : SDH
    Language : English
    Default : No
    Forced : No
    Text #11
    ID : 11
    Format : UTF-8
    Codec ID : S_TEXT/UTF8
    Codec ID/Info : UTF-8 Plain Text
    Title : SDH Colored
    Language : English
    Default : No
    Forced : No
    Text #12
    ID : 12
    Format : UTF-8
    Codec ID : S_TEXT/UTF8
    Codec ID/Info : UTF-8 Plain Text
    Title : Full
    Language : Dutch
    Default : No
    Forced : No
    Text #13
    ID : 13
    Format : UTF-8
    Codec ID : S_TEXT/UTF8
    Codec ID/Info : UTF-8 Plain Text
    Title : Full
    Language : Greek
    Default : No
    Forced : No
    Text #14
    ID : 14
    Format : UTF-8
    Codec ID : S_TEXT/UTF8
    Codec ID/Info : UTF-8 Plain Text
    Title : Full
    Language : French
    Default : No
    Forced : No
    Text #15
    ID : 15
    Format : PGS
    Muxing mode : zlib
    Codec ID : S_HDMV/PGS
    Codec ID/Info : The same subtitle format used on BDs/HD-DVDs
    Title : Full
    Language : Portuguese
    Default : Yes
    Forced : No
    Text #16
    ID : 16
    Format : UTF-8
    Codec ID : S_TEXT/UTF8
    Codec ID/Info : UTF-8 Plain Text
    Title : Full
    Language : Spanish
    Default : No
    Forced : No
    Text #17
    ID : 17
    Format : UTF-8
    Codec ID : S_TEXT/UTF8
    Codec ID/Info : UTF-8 Plain Text
    Title : Full
    Language : Swedish
    Default : No
    Forced : No
    Menu
    00:00:00.000 : en:00:00:00.000
    00:07:18.772 : en:00:07:18.772
    00:18:03.082 : en:00:18:03.082
    00:25:39.413 : en:00:25:39.413
    00:32:17.352 : en:00:32:17.352
    00:42:02.562 : en:00:42:02.562
    00:48:59.395 : en:00:48:59.395
    00:57:16.308 : en:00:57:16.308
    01:04:32.911 : en:01:04:32.911
    01:11:59.774 : en:01:11:59.774
    01:18:44.303 : en:01:18:44.303
    01:26:40.862 : en:01:26:40.862
    01:33:32.231 : en:01:33:32.231

    AddInfo

    * За дорогу №1 thx BaibaKo.
    * За дорогу №2 thx Антон Карповский Ace34, arvideo, Denis2251, denis_mgn_1987, dunhill200, foxlight, Gross1978, KpucTo161, Loki, Luka69, Role, SavineX, Schmulke, shtift, vadamk, Xerman13, Диммон.

    * Обе русских озвучки содержат ненормативную лексику.

    * По многочисленным просьбам трудящихся, у кого ящиГ не читает DTS - дороги AVO Original добавлены в AC3.

    Размер скачиваемого торрента: 10.24 GB (10993344244 Bytes)

    Несносный дед / Jackass Presents: Bad Grandpa (2013) BDRip 720p от GORESEWAGE | Unrated | PM, A скачать через торрент бесплатно
    загрузка...
    Рейтинг →
     (голосов: 1, оценка 3/5, голосовать можно 1 раз )

    Другие торренты по теме:

  • Чудаки: Несносный дед / Jackass Presents: Bad Grandpa (2013) CAMRip от dReaM скачать через торрент бесплатно
  • Несносный дед / Jackass Presents: Bad Grandpa (2013) TS торрент скачать бесплатно
  • Несносный дед / Jackass Presents: Bad Grandpa (2013) WEB-DLRip | L1 скачать через торрент бесплатно
  • Несносный дед / Jackass Presents: Bad Grandpa (2013) BDRip 1080p | Unrated Edition | BaibaKo торрент скачать бесплатно
  • Несносный дед / Jackass Presents: Bad Grandpa (2013) HDRip | Baibako | Unrated Cut торрент скачать бесплатно
  • Несносный дед / Jackass Presents: Bad Grandpa (2013) BDRip 720p | Baibako | Unrated Cut торрент скачать бесплатно
  • Несносный дед / Jackass Presents: Bad Grandpa (2013) HDRip-AVC | Baibako | Unrated Cut скачать через торрент бесплатно
  • Несносный дед / Jackass Presents: Bad Grandpa (2013) BDRip 720p от Leonardo and Scarabey | L1 | Theatrical Cut торрент скачать бесплатно


    • Комментарии (0):

      Информация

      Информация

        Посетители, находящиеся в группе Гости, не могут оставлять комментарии в данной новости.

        ↓ Меню



        ↓ Опрос

        А Вы добавили сайт в закладки?
        Да
        Не


        Top 10 за неделю (Фильмы)