.
Авторизация | Регистрация
Хочешь лучшие торренты? Добавь свой email!
Добавить
» » Зловещие мертвецы 2 / Evil Dead 2 (1987) BDRip 720p от HDClub | 25th Anniversary Edition скачать через торрент бесплатно




    Зловещие мертвецы 2 / Evil Dead 2 (1987) BDRip 720p от HDClub | 25th Anniversary Edition скачать через торрент бесплатно

    Опубликовал: Админ | Дата: 27-02-2015, 11:10 | Просмотров: 357



    Детально о кино
    Русское название: Зловещие мертвецы 2
    Русское название в мировом прокате: Evil Dead 2
    Создали в: 1987
    Категория жанра: ужасы, фэнтези
    Главный режиссер: Сэм Рэйми
    Актеры: Брюс Кэмпбелл, Сара Берри, Дэн Хикс, Кэсси ДеПайва, Тед Рейми, Дениз Бикслер, Ричард Домайер, Джон Пикс, Лу Хэнкок, Сноуи Уинтерс, Сид Абрамс, Джош Бекер, Скотт Шпигель, Томас Кидд, Митч Кантор, Дженни Гриффит, Уильям Престон Робертсон, Тони Элвуд, Сэм Рэйми

    Сюжет фильма: Эш возвращается в дом в лесу. Его подружка одержима демонами и больше не принадлежит себе. Эш в одиночку вынужден опять сражаться со злом.



    Снималось в: США
    Киностудия: De Laurentiis Entertainment Group (DEG), Renaissance Pictures
    Время просмотра: 01:24:16
    Перевод текста: профессиональный (многоголосый) x3, профессиональный (двухголосый), авторский (одноголосый) x3, оригинал

    Файл
    Кодек для видео: x264
    Качество фильма: BDRip 720p
    Информация о видео: 1280x694, 8180 Кбит/сек, 23.976 кадр/сек, 0.384 бит/пикс
    Информация о звуке 1: AC3, 448 Кбит/сек, 6 каналов, 48.0 КГц - многоголосый (CP DIGITAL)
    Информация о звуке 2: AC3, 384 Кбит/сек, 6 каналов, 48.0 КГц - многоголосый (Киномания)
    Информация о звуке 3: DTS, 1536 Кбит/сек, 6 каналов, 48.0 КГц - двухголосый (Гланц и Королева)
    Информация о звуке 4: DTS, 1536 Кбит/сек, 6 каналов, 48.0 КГц - авторский (Михалев)
    Информация о звуке 5: DTS, 1536 Кбит/сек, 6 каналов, 48.0 КГц - авторский (Сербин)
    Информация о звуке 6: AC3, 128 Кбит/сек, 2 канала, 48.0 КГц - авторский (Гаврилов)
    Информация о звуке 7: AC3, 192 Кбит/сек, 2 канала, 48.0 КГц - многоголосый (украинский)
    Информация о звуке 8: DTS, 1536 Кбит/сек, 6 каналов, 48.0 КГц - оригинал (английский)
    Информация о звуке 9: AC3, 224 Кбит/сек, 2 канала, 48.0 КГц - комментарии (английский)
    Субтитры: русские, английские

    Релиз подготовил:



    MI
    Видео
    Идентификатор : 1
    Формат : AVC
    Формат/Информация : Advanced Video Codec
    Профиль формата : High@L4.1
    Параметр CABAC формата : Да
    Параметр ReFrames формата : 9 кадров
    Идентификатор кодека : V_MPEG4/ISO/AVC
    Продолжительность : 1 ч. 24 м.
    Битрейт : 8179 Кбит/сек
    Ширина : 1280 пикс.
    Высота : 694 пикс.
    Соотношение сторон : 16:9
    Частота кадров : 23,976 кадр/сек
    Цветовое пространство : YUV
    Подвыборка цветности : 4:2:0
    Битовая глубина : 8 бит
    Тип развёртки : Прогрессивная
    Бит/(Пиксели*Кадры) : 0.384
    Размер потока : 4,81 Гбайт (51%)
    Заголовок : Release for HDCLUB
    Библиотека кодирования : x264 core 120 r2145 748fe16
    Настройки программы : cabac=1 / ref=9 / deblock=1:-3:-3 / analyse=0x3:0x113 / me=umh / subme=10 / psy=1 / psy_rd=1.20:0.10 / mixed_ref=1 / me_range=48 / chroma_me=1 / trellis=2 / 8x8dct=1 / cqm=0 / deadzone=21,11 / fast_pskip=0 / chroma_qp_offset=-3 / threads=6 / sliced_threads=0 / nr=0 / decimate=1 / interlaced=0 / bluray_compat=0 / constrained_intra=0 / bframes=10 / b_pyramid=2 / b_adapt=2 / b_bias=0 / direct=1 / weightb=1 / open_gop=0 / weightp=2 / keyint=240 / keyint_min=23 / scenecut=40 / intra_refresh=0 / rc=crf / mbtree=0 / crf=18.0 / qcomp=0.60 / qpmin=10 / qpmax=51 / qpstep=4 / ip_ratio=1.40 / pb_ratio=1.30 / aq=1:0.80
    Язык : English

    Аудио #1
    Идентификатор : 2
    Формат : AC-3
    Формат/Информация : Audio Coding 3
    Расширение режима : CM (complete main)
    Идентификатор кодека : A_AC3
    Продолжительность : 1 ч. 24 м.
    Вид битрейта : Постоянный
    Битрейт : 448 Кбит/сек
    Каналы : 6 каналов
    Расположение каналов : Front: L C R, Side: L R, LFE
    Частота : 48,0 КГц
    Битовая глубина : 16 бит
    Метод сжатия : С потерями
    Размер потока : 270 Мбайт (3%)
    Заголовок : Многоголосый, R5
    Язык : Russian

    Аудио #2
    Идентификатор : 3
    Формат : AC-3
    Формат/Информация : Audio Coding 3
    Расширение режима : CM (complete main)
    Идентификатор кодека : A_AC3
    Продолжительность : 1 ч. 24 м.
    Вид битрейта : Постоянный
    Битрейт : 384 Кбит/сек
    Каналы : 6 каналов
    Расположение каналов : Front: L C R, Side: L R, LFE
    Частота : 48,0 КГц
    Битовая глубина : 16 бит
    Метод сжатия : С потерями
    Размер потока : 231 Мбайт (2%)
    Заголовок : Многоголосый, Киномания
    Язык : Russian

    Аудио #3
    Идентификатор : 4
    Формат : DTS
    Формат/Информация : Digital Theater Systems
    Идентификатор кодека : A_DTS
    Продолжительность : 1 ч. 24 м.
    Вид битрейта : Постоянный
    Битрейт : 1510 Кбит/сек
    Каналы : 6 каналов
    Расположение каналов : Front: L C R, Side: L R, LFE
    Частота : 48,0 КГц
    Битовая глубина : 24 бит
    Метод сжатия : С потерями
    Размер потока : 910 Мбайт (9%)
    Заголовок : Двухголосый, Гланц и Королева
    Язык : Russian

    Аудио #4
    Идентификатор : 5
    Формат : DTS
    Формат/Информация : Digital Theater Systems
    Идентификатор кодека : A_DTS
    Продолжительность : 1 ч. 24 м.
    Вид битрейта : Постоянный
    Битрейт : 1510 Кбит/сек
    Каналы : 6 каналов
    Расположение каналов : Front: L C R, Side: L R, LFE
    Частота : 48,0 КГц
    Битовая глубина : 24 бит
    Метод сжатия : С потерями
    Размер потока : 910 Мбайт (9%)
    Заголовок : Одноголосый, Михалев
    Язык : Russian

    Аудио #5
    Идентификатор : 6
    Формат : DTS
    Формат/Информация : Digital Theater Systems
    Идентификатор кодека : A_DTS
    Продолжительность : 1 ч. 24 м.
    Вид битрейта : Постоянный
    Битрейт : 1510 Кбит/сек
    Каналы : 6 каналов
    Расположение каналов : Front: L C R, Side: L R, LFE
    Частота : 48,0 КГц
    Битовая глубина : 24 бит
    Метод сжатия : С потерями
    Размер потока : 910 Мбайт (9%)
    Заголовок : Одноголосый, Сербин
    Язык : Russian

    Аудио #6
    Идентификатор : 7
    Формат : AC-3
    Формат/Информация : Audio Coding 3
    Расширение режима : CM (complete main)
    Идентификатор кодека : A_AC3
    Продолжительность : 1 ч. 24 м.
    Вид битрейта : Постоянный
    Битрейт : 128 Кбит/сек
    Каналы : 2 канала
    Расположение каналов : Front: L R
    Частота : 48,0 КГц
    Битовая глубина : 16 бит
    Метод сжатия : С потерями
    Размер потока : 77,2 Мбайт (1%)
    Заголовок : Одноголосый, Гаврилов
    Язык : Russian

    Аудио #7
    Идентификатор : 8
    Формат : AC-3
    Формат/Информация : Audio Coding 3
    Расширение режима : CM (complete main)
    Идентификатор кодека : A_AC3
    Продолжительность : 1 ч. 24 м.
    Вид битрейта : Постоянный
    Битрейт : 192 Кбит/сек
    Каналы : 2 канала
    Расположение каналов : Front: L R
    Частота : 48,0 КГц
    Битовая глубина : 16 бит
    Метод сжатия : С потерями
    Размер потока : 116 Мбайт (1%)
    Заголовок : Многоголосый, 2 2
    Язык : Ukrainian

    Аудио #8
    Идентификатор : 9
    Формат : DTS
    Формат/Информация : Digital Theater Systems
    Идентификатор кодека : A_DTS
    Продолжительность : 1 ч. 24 м.
    Вид битрейта : Постоянный
    Битрейт : 1510 Кбит/сек
    Каналы : 6 каналов
    Расположение каналов : Front: L C R, Side: L R, LFE
    Частота : 48,0 КГц
    Битовая глубина : 24 бит
    Метод сжатия : С потерями
    Размер потока : 910 Мбайт (9%)
    Заголовок : Оригинал
    Язык : English

    Аудио #9
    Идентификатор : 10
    Формат : AC-3
    Формат/Информация : Audio Coding 3
    Расширение режима : CM (complete main)
    Идентификатор кодека : A_AC3
    Продолжительность : 1 ч. 24 м.
    Вид битрейта : Постоянный
    Битрейт : 224 Кбит/сек
    Каналы : 2 канала
    Расположение каналов : Front: L R
    Частота : 48,0 КГц
    Битовая глубина : 16 бит
    Метод сжатия : С потерями
    Размер потока : 135 Мбайт (1%)
    Заголовок : Комментарии
    Язык : English

    Текст #1
    Идентификатор : 11
    Формат : UTF-8
    Идентификатор кодека : S_TEXT/UTF8
    Идентификатор кодека/Информация : UTF-8 Plain Text
    Язык : Russian

    Текст #2
    Идентификатор : 12
    Формат : UTF-8
    Идентификатор кодека : S_TEXT/UTF8
    Идентификатор кодека/Информация : UTF-8 Plain Text
    Язык : English

    Размер скачиваемого торрента: 9.37 GB (10055829895 Bytes)

    Зловещие мертвецы 2 / Evil Dead 2 (1987) BDRip 720p от HDClub | 25th Anniversary Edition скачать через торрент бесплатно
    загрузка...
    Рейтинг →
     (голосов: 1, оценка 4/5, голосовать можно 1 раз )

    Другие торренты по теме:

  • Зловещие мертвецы / The Evil Dead (1981) HDRip | A
  • Зловещие мертвецы 2 / Evil Dead II (1987) BDRip-AVC
  • OST - Зловещие мертвецы: Черная книга / Evil Dead (2013) MP3 от Kulemina - Generalfilm
  • Зловещие мертвецы: Черная книга / Evil Dead (2013) HDRip | Трейлер
  • Зловещие мертвецы 3: Армия Тьмы / Evil Dead. Army of Darkness (1992) BDRemux 1080p
  • Зловещие Мертвецы. Трилогия / The Evil Dead. Trilogy (1981-1992) BDRip-AVC
  • Зловещие Мертвецы: Трилогия / The Evil Dead: Trilogy (1981-1992) BDRip | P2, Р, А
  • OST - Зловещие мертвецы: Чёрная книга / Evil Dead (2013) MP3


    • Комментарии (0):

      Информация

      Информация

        Посетители, находящиеся в группе Гости, не могут оставлять комментарии в данной новости.

        ↓ Меню



        ↓ Опрос

        А Вы добавили сайт в закладки?
        Да
        Не


        Top 10 за месяц (Фильмы)