.
Авторизация | Регистрация
» » Мотель / The Bag Man (2014) BDRip 720p | L1 скачать через торрент бесплатно




    Мотель / The Bag Man (2014) BDRip 720p | L1 скачать через торрент бесплатно

    Опубликовал: Админ | Дата: 27-02-2015, 11:10 | Просмотров: 176



    Детально о кино
    Русское название: Мотель / Сумка / Комната 13 / Человек с сумкой
    Русское название в мировом прокате: The Bag Man / Motel Room 13 / Motel
    Создали в: 2014
    Категория жанра: триллер, криминал
    Главный режиссер: Дэвид Гровик
    Актеры: Роберт Де Ниро, Джон Кьюсак, Ребекка Да Коста, Криспин Гловер, Доминик Пёрселл, Стикки Фингаз, Мартин Клебба, Дэвид Шамбрис, Чезз Менендес, Йен Маклафлин

    Сюжет фильма: Наемный убийца Джек Стаффорд получает несложное задание: приехать в заштатный мотель в 300 милях от Питтсбурга, получить сумку с таинственным содержимым и оставаться в номере, пока за грузом не приедут. Условие одно: ни при каких обстоятельствах не заглядывать внутрь сумки. Но поручение оказывается простым лишь на первый взгляд. Вскоре киллер понимает, что за доверенным ему предметом охотятся коррумпированные агенты ФБР, продажные полицейские, провинциальные гангстеры. И каждый хочет всадить в Джека пулю. Число жертв растет на глазах, и дожить до рассвета смогут далеко не все постояльцы мотеля.



    Снималось в: США
    Время просмотра: 01:48:45
    Перевод текста: Любительский (одноголосый, закадровый) - qwerty

    Файл
    Качество фильма: BDRip 720p
    Тип видео: MKV
    Информация о видео: MPEG4/AVC, 1280х528 (2.40:1), 4238 Кбит/сек, 23.976 кадра/сек
    Информация о звуке 1: Rus, AC3, 384 Кбит/сек (6 каналов)
    Информация о звуке 2: Eng, AC3, 640 Кбит/сек (6 каналов)
    Навигация по главам: Есть

    MediaInfo:
    Общее
    Уникальный идентификатор : 208427074581100613324961501690318530087 (0x9CCD982BA03663AFB0683A514A0FA627)
    Полное имя : The Bag Man. (2014) BDRip 720p.mkv
    Формат : Matroska
    Версия формата : Version 2
    Размер файла : 4,00 Гбайт
    Продолжительность : 1 ч. 48 м.
    Общий поток : 5261 Кбит/сек
    Дата кодирования : UTC 2014-03-09 12:44:56
    Программа кодирования : mkvmerge v5.8.0 (;No Sleep / Pillow;) built on Sep 2 2012 15:37:04
    Библиотека кодирования : libebml v1.2.3 libmatroska v1.3.0

    Видео
    Идентификатор : 1
    Формат : AVC
    Формат/Информация : Advanced Video Codec
    Профиль формата : High@L4.1
    Параметр CABAC формата : Да
    Параметр ReFrames формата : 5 кадров
    Идентификатор кодека : V_MPEG4/ISO/AVC
    Продолжительность : 1 ч. 48 м.
    Битрейт : 4238 Кбит/сек
    Ширина : 1280 пикселей
    Высота : 528 пикселей
    Соотношение сторон : 2,40:1
    Режим частоты кадров : Постоянный
    Частота кадров : 23,976 кадра/сек
    Цветовое пространство : YUV
    Субдискретизация насыщенности : 4:2:0
    Битовая глубина : 8 бит
    Тип развёртки : Прогрессивная
    Бит/(Пиксели*Кадры) : 0.262
    Размер потока : 3,14 Гбайт (79%)
    Библиотека кодирования : x264 core 140 r2377 1ca7bb9
    Настройки программы : cabac=1 / ref=5 / deblock=1:0:0 / analyse=0x3:0x133 / me=umh / subme=7 / psy=1 / psy_rd=1.00:0.00 / mixed_ref=1 / me_range=16 / chroma_me=1 / trellis=1 / 8x8dct=1 / cqm=0 / deadzone=21,11 / fast_pskip=0 / chroma_qp_offset=-2 / threads=12 / lookahead_threads=2 / sliced_threads=0 / nr=0 / decimate=1 / interlaced=0 / bluray_compat=0 / constrained_intra=0 / bframes=3 / b_pyramid=2 / b_adapt=1 / b_bias=0 / direct=1 / weightb=1 / open_gop=0 / weightp=1 / keyint=250 / keyint_min=23 / scenecut=40 / intra_refresh=0 / rc_lookahead=40 / rc=2pass / mbtree=1 / bitrate=4238 / ratetol=1.0 / qcomp=0.60 / qpmin=0 / qpmax=69 / qpstep=4 / cplxblur=20.0 / qblur=0.5 / ip_ratio=1.40 / aq=1:1.00
    Язык : English
    Default : Да
    Forced : Нет

    Аудио #1
    Идентификатор : 2
    Формат : AC-3
    Формат/Информация : Audio Coding 3
    Расширение режима : CM (complete main)
    Параметр Endianness формата : Big
    Идентификатор кодека : A_AC3
    Продолжительность : 1 ч. 48 м.
    Вид битрейта : Постоянный
    Битрейт : 384 Кбит/сек
    Каналы : 6 каналов
    Расположение каналов : Front: L C R, Side: L R, LFE
    Частота : 48,0 КГц
    Битовая глубина : 16 бит
    Метод сжатия : С потерями
    Размер потока : 299 Мбайт (7%)
    Заголовок : Rus | 384 Kbps | L1
    Язык : Russian
    Default : Да
    Forced : Нет

    Аудио #2
    Идентификатор : 3
    Формат : AC-3
    Формат/Информация : Audio Coding 3
    Расширение режима : CM (complete main)
    Параметр Endianness формата : Big
    Идентификатор кодека : A_AC3
    Продолжительность : 1 ч. 48 м.
    Вид битрейта : Постоянный
    Битрейт : 640 Кбит/сек
    Каналы : 6 каналов
    Расположение каналов : Front: L C R, Side: L R, LFE
    Частота : 48,0 КГц
    Битовая глубина : 16 бит
    Метод сжатия : С потерями
    Размер потока : 498 Мбайт (12%)
    Заголовок : Eng | 640 Kbps
    Язык : English
    Default : Нет
    Forced : Нет

    Меню
    00:00:00.000 : en:00:00:00.000
    00:05:34.501 : en:00:05:34.501
    00:10:00.850 : en:00:10:00.850
    00:16:30.156 : en:00:16:30.156
    00:21:09.643 : en:00:21:09.643
    00:26:34.301 : en:00:26:34.301
    00:31:43.318 : en:00:31:43.318
    00:37:17.902 : en:00:37:17.902
    00:42:09.318 : en:00:42:09.318
    00:46:11.268 : en:00:46:11.268
    00:52:23.599 : en:00:52:23.599
    00:57:02.044 : en:00:57:02.044
    01:02:28.453 : en:01:02:28.453
    01:07:49.482 : en:01:07:49.482
    01:12:37.061 : en:01:12:37.061
    01:16:46.727 : en:01:16:46.727
    01:24:15.676 : en:01:24:15.676
    01:30:44.105 : en:01:30:44.105
    01:36:37.083 : en:01:36:37.083
    01:40:53.965 : en:01:40:53.965
    01:42:57.713 : en:01:42:57.713

    Скриншоты для ознакомления:


    Релиз подготовил:
    Размер скачиваемого торрента: 4.00 GB (4291085774 Bytes)

    Мотель / The Bag Man (2014) BDRip 720p | L1 скачать через торрент бесплатно
    загрузка...
    Рейтинг →
     (голосов: 1, оценка 5/5, голосовать можно 1 раз )

    Другие торренты по теме:

  • Адский мотель / Мотель Ад / Motel Hell (1980) BDRip-AVC от olegek70 | A торрент скачать бесплатно
  • Мотель Бейтса (Мотель Бэйтс) / Bates Motel (2013) WEB-DL 1080p от MediaClub торрент скачать бесплатно
  • Мотель Бейтса (Мотель Бэйтс) / Bates Motel (2013) WEB-DL 720p от MediaClub торрент скачать бесплатно
  • Мотель Бейтса / Мотель Бэйтс / Bates Motel (2013) WEB-DLRip | LostFilm торрент скачать бесплатно
  • Мотель Бейтса / Мотель Бейтсов / Bates Motel (2014) WEB-DLRip | NewStudio скачать через торрент бесплатно
  • Мотель Бейтса / Мотель Бейтсов / Bates Motel (2014) WEB-DLRip | LostFilm торрент скачать бесплатно
  • Мотель Бейтса / Мотель Бейтсов / Bates Motel (2014) WEB-DLRip от Scarabey | LostFilm торрент скачать бесплатно
  • Мотель Бейтса / Мотель Бейтсов / Bates Motel (2014) WEB-DL 720p | LostFilm, NewStudio торрент скачать бесплатно


    • Комментарии (0):

      Информация

      Информация

        Посетители, находящиеся в группе Гости, не могут оставлять комментарии в данной новости.

        ↓ Меню



        ↓ Опрос

        А Вы добавили сайт в закладки?
        Да
        Не


        Top 10 за неделю (Фильмы)