.
Авторизация | Регистрация
» » Бойфренд из будущего / About Time (2013) BDRip 720p от GORESEWAGE | 2xDub скачать через торрент бесплатно




    Бойфренд из будущего / About Time (2013) BDRip 720p от GORESEWAGE | 2xDub скачать через торрент бесплатно

    Опубликовал: Админ | Дата: 27-02-2015, 11:10 | Просмотров: 195



    Бойфренд из будущего / About Time

    Создали в: 2013
    Снималось в: Великобритания
    Категория жанра: фэнтези, драма, мелодрама
    Время просмотра: 02:03:22
    Перевод текста 1: Профессиональный (дублированный) BD CEE
    Перевод текста 2: Профессиональный (дублированный) Line (Ukr)
    Оригинальная аудиодорожка: English
    Субтитры: Russian (Forced BD CEE, Full BD CEE), Ukrainian (Full BD CEE), English (Full, SDH, SDH Colored, Commentary), Chinese (Full), Croatian (Full), Czech (Full), Estonian (Full), Greek (Full), Hungarian (Full), Latvian (Full), Lithuanian (Full), Polish (Full), Portuguese (Full BRA), Romanian (Full), Slovenian (Full), Spanish (Full), Turkish (Full)
    Киностудия: Translux, Working Title Films

    Главный режиссёр: Ричард Кёртис / Richard Curtis

    Актеры: Донал Глисон, Рэйчел МакАдамс, Билл Найи, Том Холландер, Марго Робби, Лидия Уилсон, Линдси Дункан, Ричард Кордери, Джош МакГуайр, Уилл Меррик и др.

    Сюжет: Тиму повезло - он молодой, симпатичный, многообещающий адвокат, а ещё он… умеет перемещаться во времени. И чтобы очаровать девушку своей мечты, он готов повторять первое свидание вновь и вновь. Воистину, любовь с первого взгляда не всегда выходит с первого раза…



    Sample

    Качество фильма: BDRip 720p (CtrlHD)
    Контейнер: MKV
    Информация о видео кодек: MPEG-4 AVC Video
    Информация о звуке кодек: DTS / AC3
    Информация о видео: MPEG-4 AVC Video / 6787 kbps / 1280x534p / 23,976 fps / 2.40:1 / High Profile 4.1
    Информация о звуке 1: Russian / DTS / 5.1 / 48 kHz / 768 kbps / 24-bit | Dub BD CEE
    Информация о звуке 2: Ukrainian / AC3 / 2.0 / 48 kHz / 192 kbps / 16-bit | Dub Line
    Информация о звуке 3: English / DTS / 5.1 / 48 kHz / 1536 kbps / 24-bit | Original
    Информация о звуке 4: English / AC3 / 2.0 / 48 kHz / 192 kbps / 16-bit | Commentary by director Richard Curtis cast members Domhnall Gleeson, Bill Nighy, Vanessa Kirby, Lydia Wilson Tom Hollander
    Навигация по главам: да

    Screens

    MediaInfo
    C:/GORESEWAGE/About Time 2013 BDRip 720p GORESEWAGE.mkv
    General
    Unique ID : 223337180454122342935064400975211620196 (0xA8052D257B12FFC9A7FF01E974A96764)
    Complete name : C:/GORESEWAGE/About Time 2013 BDRip 720p GORESEWAGE.mkv
    Format : Matroska
    Format version : Version 4 / Version 2
    File size : 8.31 GiB
    Duration : 2h 3mn
    Overall bit rate : 9 639 Kbps
    Movie name : About Time 2013 BDRip 720p GORESEWAGE
    Encoded date : UTC 2014-03-09 22:13:10
    Writing application : mkvmerge v6.8.0 (;Theme for Great Cities;) 64bit built on Mar 2 2014 21:34:26
    Writing library : libebml v1.3.0 libmatroska v1.4.1
    Attachment : Yes
    Video #1
    ID : 1
    Format : AVC
    Format/Info : Advanced Video Codec
    Format profile : High@L4.1
    Format settings, CABAC : Yes
    Format settings, ReFrames : 12 frames
    Codec ID : V_MPEG4/ISO/AVC
    Duration : 2h 3mn
    Bit rate : 6 787 Kbps
    Width : 1 280 pixels
    Height : 534 pixels
    Display aspect ratio : 2.40:1
    Frame rate mode : Constant
    Frame rate : 23.976 fps
    Color space : YUV
    Chroma subsampling : 4:2:0
    Bit depth : 8 bits
    Scan type : Progressive
    Bits/(Pixel*Frame) : 0.414
    Stream size : 5.85 GiB (70%)
    Title : About Time 2013 BDRip 720p GORESEWAGE
    Writing library : x264 core 140 r2377kMod 1ca7bb9
    Encoding settings : cabac=1 / ref=12 / deblock=1:-3:-3 / analyse=0x3:0x113 / me=umh / subme=10 / psy=1 / fade_compensate=0.00 / psy_rd=1.10:0.00 / mixed_ref=1 / me_range=16 / chroma_me=1 / trellis=2 / 8x8dct=1 / cqm=0 / deadzone=21,11 / fast_pskip=0 / chroma_qp_offset=-2 / threads=6 / lookahead_threads=1 / sliced_threads=0 / nr=0 / decimate=0 / interlaced=0 / bluray_compat=0 / constrained_intra=0 / fgo=0 / bframes=7 / b_pyramid=2 / b_adapt=2 / b_bias=0 / direct=3 / weightb=1 / open_gop=0 / weightp=2 / keyint=250 / keyint_min=23 / scenecut=40 / intra_refresh=0 / rc_lookahead=60 / rc=crf / mbtree=0 / crf=15.0000 / qcomp=0.70 / qpmin=0 / qpmax=69 / qpstep=4 / vbv_maxrate=20000 / vbv_bufsize=15000 / crf_max=0.0 / nal_hrd=none / filler=0 / ip_ratio=1.20 / pb_ratio=1.10 / aq=1:0.70
    Language : English
    Default : Yes
    Forced : No
    Audio #2
    ID : 2
    Format : DTS
    Format/Info : Digital Theater Systems
    Mode : 16
    Format settings, Endianness : Big
    Codec ID : A_DTS
    Duration : 2h 3mn
    Bit rate mode : Constant
    Bit rate : 768 Kbps
    Channel count : 6 channels
    Channel positions : Front: L C R, Side: L R, LFE
    Sampling rate : 48.0 KHz
    Bit depth : 24 bits
    Compression mode : Lossy
    Stream size : 678 MiB (8%)
    Title : Dub BD CEE
    Language : Russian
    Default : Yes
    Forced : No
    Audio #3
    ID : 3
    Format : AC-3
    Format/Info : Audio Coding 3
    Mode extension : CM (complete main)
    Format settings, Endianness : Big
    Codec ID : A_AC3
    Duration : 2h 3mn
    Bit rate mode : Constant
    Bit rate : 192 Kbps
    Channel count : 2 channels
    Channel positions : Front: L R
    Sampling rate : 48.0 KHz
    Bit depth : 16 bits
    Compression mode : Lossy
    Stream size : 169 MiB (2%)
    Title : Dub Line
    Language : Ukrainian
    Default : No
    Forced : No
    Audio #4
    ID : 4
    Format : DTS
    Format/Info : Digital Theater Systems
    Mode : 16
    Format settings, Endianness : Big
    Codec ID : A_DTS
    Duration : 2h 3mn
    Bit rate mode : Constant
    Bit rate : 1 509 Kbps
    Channel count : 6 channels
    Channel positions : Front: L C R, Side: L R, LFE
    Sampling rate : 48.0 KHz
    Bit depth : 24 bits
    Compression mode : Lossy
    Stream size : 1.30 GiB (16%)
    Title : Original
    Language : English
    Default : No
    Forced : No
    Audio #5
    ID : 5
    Format : AC-3
    Format/Info : Audio Coding 3
    Format profile : Dolby Digital
    Mode extension : CM (complete main)
    Format settings, Endianness : Big
    Codec ID : A_AC3
    Duration : 2h 3mn
    Bit rate mode : Constant
    Bit rate : 192 Kbps
    Channel count : 2 channels
    Channel positions : Front: L R
    Sampling rate : 48.0 KHz
    Bit depth : 16 bits
    Compression mode : Lossy
    Stream size : 169 MiB (2%)
    Title : Commentary by director Richard Curtis cast members Domhnall Gleeson, Bill Nighy, Vanessa Kirby, Lydia Wilson Tom Hollander
    Language : English
    Default : No
    Forced : No
    Text #6
    ID : 6
    Format : UTF-8
    Codec ID : S_TEXT/UTF8
    Codec ID/Info : UTF-8 Plain Text
    Title : Forced BD CEE
    Language : Russian
    Default : Yes
    Forced : No
    Text #7
    ID : 7
    Format : UTF-8
    Codec ID : S_TEXT/UTF8
    Codec ID/Info : UTF-8 Plain Text
    Title : Full BD CEE
    Language : Russian
    Default : No
    Forced : No
    Text #8
    ID : 8
    Format : UTF-8
    Codec ID : S_TEXT/UTF8
    Codec ID/Info : UTF-8 Plain Text
    Title : Full BD CEE
    Language : Ukrainian
    Default : No
    Forced : No
    Text #9
    ID : 9
    Format : UTF-8
    Codec ID : S_TEXT/UTF8
    Codec ID/Info : UTF-8 Plain Text
    Title : Full
    Language : English
    Default : No
    Forced : No
    Text #10
    ID : 10
    Format : UTF-8
    Codec ID : S_TEXT/UTF8
    Codec ID/Info : UTF-8 Plain Text
    Title : SDH
    Language : English
    Default : No
    Forced : No
    Text #11
    ID : 11
    Format : UTF-8
    Codec ID : S_TEXT/UTF8
    Codec ID/Info : UTF-8 Plain Text
    Title : SDH Colored
    Language : English
    Default : No
    Forced : No
    Text #12
    ID : 12
    Format : UTF-8
    Codec ID : S_TEXT/UTF8
    Codec ID/Info : UTF-8 Plain Text
    Title : Commentary by director Richard Curtis cast members Domhnall Gleeson, Bill Nighy, Vanessa Kirby, Lydia Wilson Tom Hollander
    Language : English
    Default : No
    Forced : No
    Text #13
    ID : 13
    Format : UTF-8
    Codec ID : S_TEXT/UTF8
    Codec ID/Info : UTF-8 Plain Text
    Title : Full
    Language : Chinese
    Default : No
    Forced : No
    Text #14
    ID : 14
    Format : UTF-8
    Codec ID : S_TEXT/UTF8
    Codec ID/Info : UTF-8 Plain Text
    Title : Full
    Language : Croatian
    Default : No
    Forced : No
    Text #15
    ID : 15
    Format : UTF-8
    Codec ID : S_TEXT/UTF8
    Codec ID/Info : UTF-8 Plain Text
    Title : Full
    Language : Czech
    Default : No
    Forced : No
    Text #16
    ID : 16
    Format : UTF-8
    Codec ID : S_TEXT/UTF8
    Codec ID/Info : UTF-8 Plain Text
    Title : Full
    Language : Estonian
    Default : No
    Forced : No
    Text #17
    ID : 17
    Format : UTF-8
    Codec ID : S_TEXT/UTF8
    Codec ID/Info : UTF-8 Plain Text
    Title : Full
    Language : Greek
    Default : No
    Forced : No
    Text #18
    ID : 18
    Format : UTF-8
    Codec ID : S_TEXT/UTF8
    Codec ID/Info : UTF-8 Plain Text
    Title : Full
    Language : Hungarian
    Default : No
    Forced : No
    Text #19
    ID : 19
    Format : UTF-8
    Codec ID : S_TEXT/UTF8
    Codec ID/Info : UTF-8 Plain Text
    Title : Full
    Language : Latvian
    Default : No
    Forced : No
    Text #20
    ID : 20
    Format : UTF-8
    Codec ID : S_TEXT/UTF8
    Codec ID/Info : UTF-8 Plain Text
    Title : Full
    Language : Lithuanian
    Default : No
    Forced : No
    Text #21
    ID : 21
    Format : UTF-8
    Codec ID : S_TEXT/UTF8
    Codec ID/Info : UTF-8 Plain Text
    Title : Full
    Language : Polish
    Default : No
    Forced : No
    Text #22
    ID : 22
    Format : UTF-8
    Codec ID : S_TEXT/UTF8
    Codec ID/Info : UTF-8 Plain Text
    Title : Full BRA
    Language : Portuguese
    Default : No
    Forced : No
    Text #23
    ID : 23
    Format : UTF-8
    Codec ID : S_TEXT/UTF8
    Codec ID/Info : UTF-8 Plain Text
    Title : Full
    Language : Romanian
    Default : No
    Forced : No
    Text #24
    ID : 24
    Format : UTF-8
    Codec ID : S_TEXT/UTF8
    Codec ID/Info : UTF-8 Plain Text
    Title : Full
    Language : Slovenian
    Default : No
    Forced : No
    Text #25
    ID : 25
    Format : UTF-8
    Codec ID : S_TEXT/UTF8
    Codec ID/Info : UTF-8 Plain Text
    Title : Full
    Language : Spanish
    Default : No
    Forced : No
    Text #26
    ID : 26
    Format : UTF-8
    Codec ID : S_TEXT/UTF8
    Codec ID/Info : UTF-8 Plain Text
    Title : Full
    Language : Turkish
    Default : No
    Forced : No
    Menu
    00:00:00.000 : :Chapter 01
    00:03:58.071 : :Chapter 02
    00:10:11.902 : :Chapter 03
    00:17:26.295 : :Chapter 04
    00:20:38.111 : :Chapter 05
    00:26:04.396 : :Chapter 06
    00:32:44.003 : :Chapter 07
    00:40:26.590 : :Chapter 08
    00:45:17.965 : :Chapter 09
    00:49:43.438 : :Chapter 10
    00:54:50.870 : :Chapter 11
    01:03:44.529 : :Chapter 12
    01:09:29.373 : :Chapter 13
    01:16:28.000 : :Chapter 14
    01:21:35.724 : :Chapter 15
    01:27:24.447 : :Chapter 16
    01:34:52.812 : :Chapter 17
    01:43:48.847 : :Chapter 18
    01:49:32.315 : :Chapter 19
    01:57:03.141 : :Chapter 20

    Размер скачиваемого торрента: 8.31 GB (8918957845 Bytes)

    Бойфренд из будущего / About Time (2013) BDRip 720p от GORESEWAGE | 2xDub скачать через торрент бесплатно
    загрузка...
    Рейтинг →
     (голосов: 1, оценка 3/5, голосовать можно 1 раз )

    Другие торренты по теме:

  • Бойфренд из будущего / About Time (2013) BDRip 720p | Лицензия торрент скачать бесплатно
  • Бойфренд из будущего / About Time (2013) Blu-Ray Remux 1080p | Лицензия торрент скачать бесплатно
  • Бойфренд из будущего / About Time (2013) BDRip | Лицензия торрент скачать бесплатно
  • Бойфренд из будущего / About Time (2013) Blu-Ray 1080p | Лицензия торрент скачать бесплатно
  • Бойфренд из будущего / About Time (2013) BDRip 1080p скачать через торрент бесплатно
  • Бойфренд из будущего / About Time (2013) HDRip от -=HD-NET=- | КПК | Лицензия скачать через торрент бесплатно
  • Бойфренд из будущего / About Time (2013) BDRip-AVC от MediaClub | Лицензия скачать через торрент бесплатно
  • Бойфренд из будущего / About Time (2013) BDRip 1080p | Лицензия скачать через торрент бесплатно


    • Комментарии (0):

      Информация

      Информация

        Посетители, находящиеся в группе Гости, не могут оставлять комментарии в данной новости.

        ↓ Меню



        ↓ Опрос

        А Вы добавили сайт в закладки?
        Да
        Не


        Top 10 за неделю (Фильмы)