.
Авторизация | Регистрация
Хочешь лучшие торренты? Добавь свой email!
Добавить
» » ЗащитнеГ / Defendor (2009) BDRip by msltel | P, P2, A, L1 скачать через торрент бесплатно




    ЗащитнеГ / Defendor (2009) BDRip by msltel | P, P2, A, L1 скачать через торрент бесплатно

    Опубликовал: Админ | Дата: 27-02-2015, 11:10 | Просмотров: 219



    Русское название: ЗащитнеГ
    Русское название в мировом прокате: Defendor
    Создали в: 2009
    Категория жанра: Драма, комедия, криминал
    Снималось в: США, Канада, Великобритания, BUCK Productions, Darius Films Inc., Insight Film Releasing, Ontario Media Development Corporation (OMDC)
    Главный режиссер: Питер Стеббингс
    Актеры: Вуди Харрельсон, Элиас Котеас, Майкл Келли, Сандра О, Кэт Деннингс, Кларк Джонсон, Лиза Рэй, Алан С. Петерсон, Кристин Бут, Шарлотта Салливан

    Сюжет фильма: Простой парень Артур Поппингтон решает, что он супергерой-Защитник, и каждую ночь, напялив тугие лосины, отправляется на улицы города в поисках своего главного врага Капитана Индастри - наркодилера, которого Артур ошибочно винит в смерти матери. Однако вместо Индастри герой встречает молодую проститутку и вместе с ней, а также при моральной поддержке своего лечащего психиатра, доказывает, что каждый способен сделать мир лучше.

    Качество фильма: BDRip
    Размер скачиваемого торрента: 2.72 ГБ
    Время просмотра: 01:41:23

    Информация о видео: XviD, 1575 Kбит/сек, 720x304
    Информация о звуке 1: русский, 48 kHz, AC3, 6 ch, 448 kbps avg, Профессиональный многоголосый, ВОЛЬГА
    Информация о звуке 2: русский, 48 kHz, AC3, 6 ch, 448 kbps avg, Профессиональный двухголосый
    Информация о звуке 3: русский, 48 kHz, AC3, 6 ch, 448 kbps avg, Авторский, Михаил Чадов (с ненормативной лексикой)

    Внешние файлы
    Информация о звуке: русский, 48 kHz, AC3, 6 ch, 448 kbps avg, Любительскийский, zamez
    Информация о звуке: английский, 48 kHz, AC3, 6 ch, 448 kbps avg, Оригинал
    Субтитры: русские
    Субтитры: английские (для слабослышащих)

    Исходник: homih1985 (Кинозал)

    Сравнение с исходником



    MediaInfo
    Общее
    Полное имя : D:VideoZashitneG.2009.XviD.BDRipZashitneG.2009.eng.SDH.srt
    Формат : SubRip
    Размер файла : 89,5 Кбайт

    Текст
    Формат : SubRip
    Метод сжатия : Без потерь

    Общее
    Полное имя : D:VideoZashitneG.2009.XviD.BDRipZashitneg.2009.Original.eng.ac3
    Формат : AC-3
    Формат/Информация : Audio Coding 3
    Размер файла : 325 Мбайт
    Продолжительность : 1 ч. 41 м.
    Режим общего битрейта : Постоянный
    Общий поток : 448 Кбит/сек

    Аудио
    Формат : AC-3
    Формат/Информация : Audio Coding 3
    Расширение режима : CM (complete main)
    Параметр Endianness формата : Big
    Продолжительность : 1 ч. 41 м.
    Вид битрейта : Постоянный
    Битрейт : 448 Кбит/сек
    Каналы : 6 каналов
    Расположение каналов : Front: L C R, Side: L R, LFE
    Частота : 48,0 КГц
    Битовая глубина : 16 бит
    Метод сжатия : С потерями
    Размер потока : 325 Мбайт (100%)

    Общее
    Полное имя : D:VideoZashitneG.2009.XviD.BDRipZashitneG.2009.rus.srt
    Формат : SubRip
    Размер файла : 91,4 Кбайт

    Текст
    Формат : SubRip
    Метод сжатия : Без потерь

    Общее
    Полное имя : D:VideoZashitneG.2009.XviD.BDRipZashitneG.2009.VO.rus.zamez, любительский.ac3
    Формат : AC-3
    Формат/Информация : Audio Coding 3
    Размер файла : 325 Мбайт
    Продолжительность : 1 ч. 41 м.
    Режим общего битрейта : Постоянный
    Общий поток : 448 Кбит/сек

    Аудио
    Формат : AC-3
    Формат/Информация : Audio Coding 3
    Расширение режима : CM (complete main)
    Параметр Endianness формата : Big
    Продолжительность : 1 ч. 41 м.
    Вид битрейта : Постоянный
    Битрейт : 448 Кбит/сек
    Каналы : 6 каналов
    Расположение каналов : Front: L C R, Side: L R, LFE
    Частота : 48,0 КГц
    Битовая глубина : 16 бит
    Метод сжатия : С потерями
    Размер потока : 325 Мбайт (100%)

    Общее
    Полное имя : D:VideoZashitneG.2009.XviD.BDRipZashitneg.2009.XviD.BDRip.avi
    Формат : AVI
    Формат/Информация : Audio Video Interleave
    Профиль формата : OpenDML
    Размер файла : 2,08 Гбайт
    Продолжительность : 1 ч. 41 м.
    Общий поток : 2943 Кбит/сек
    Программа кодирования : VirtualDubMod 1.5.10.2 (build 2540/release)
    Библиотека кодирования : VirtualDubMod build 2540/release

    Видео
    Идентификатор : 0
    Формат : MPEG-4 Visual
    Профиль формата : Advanced Simple@L5
    Параметр BVOP формата : 1
    Параметр QPel формата : Нет
    Параметр GMC формата : Без точки перехода
    Параметр матрицы формата : Default (H.263)
    Режим смешивания : Сжатый битовый поток
    Идентификатор кодека : XVID
    Идентификатор кодека/Подсказка : XviD
    Продолжительность : 1 ч. 41 м.
    Битрейт : 1575 Кбит/сек
    Ширина : 720 пикселей
    Высота : 304 пикселя
    Соотношение сторон : 2,35:1
    Частота кадров : 23,976 кадра/сек
    Цветовое пространство : YUV
    Субдискретизация насыщенности : 4:2:0
    Битовая глубина : 8 бит
    Тип развёртки : Прогрессивная
    Метод сжатия : С потерями
    Бит/(Пиксели*Кадры) : 0.300
    Размер потока : 1,12 Гбайт (54%)
    Библиотека кодирования : XviD 1.2.1 (UTC 2008-12-04)

    Аудио #1
    Идентификатор : 1
    Формат : AC-3
    Формат/Информация : Audio Coding 3
    Расширение режима : CM (complete main)
    Параметр Endianness формата : Big
    Идентификатор кодека : 2000
    Продолжительность : 1 ч. 41 м.
    Вид битрейта : Постоянный
    Битрейт : 448 Кбит/сек
    Каналы : 6 каналов
    Расположение каналов : Front: L C R, Side: L R, LFE
    Частота : 48,0 КГц
    Битовая глубина : 16 бит
    Метод сжатия : С потерями
    Размер потока : 325 Мбайт (15%)
    Выравнивание : Разделение по промежуткам
    Продолжительность промежутка : 42 мс. (1,00 видеокадр)
    Время предзагрузки промежутка : 500 мс.

    Аудио #2
    Идентификатор : 2
    Формат : AC-3
    Формат/Информация : Audio Coding 3
    Расширение режима : CM (complete main)
    Параметр Endianness формата : Big
    Идентификатор кодека : 2000
    Продолжительность : 1 ч. 41 м.
    Вид битрейта : Постоянный
    Битрейт : 448 Кбит/сек
    Каналы : 6 каналов
    Расположение каналов : Front: L C R, Side: L R, LFE
    Частота : 48,0 КГц
    Битовая глубина : 16 бит
    Метод сжатия : С потерями
    Размер потока : 325 Мбайт (15%)
    Выравнивание : Разделение по промежуткам
    Продолжительность промежутка : 42 мс. (1,00 видеокадр)
    Время предзагрузки промежутка : 500 мс.

    Аудио #3
    Идентификатор : 3
    Формат : AC-3
    Формат/Информация : Audio Coding 3
    Расширение режима : CM (complete main)
    Параметр Endianness формата : Big
    Идентификатор кодека : 2000
    Продолжительность : 1 ч. 41 м.
    Вид битрейта : Постоянный
    Битрейт : 448 Кбит/сек
    Каналы : 6 каналов
    Расположение каналов : Front: L C R, Side: L R, LFE
    Частота : 48,0 КГц
    Битовая глубина : 16 бит
    Метод сжатия : С потерями
    Размер потока : 325 Мбайт (15%)
    Выравнивание : Разделение по промежуткам
    Продолжительность промежутка : 42 мс. (1,00 видеокадр)
    Время предзагрузки промежутка : 500 мс.
    Скриншоты для ознакомления



    Залил: msltel
    Размер скачиваемого торрента: 2.72 GB (2919443229 Bytes)

    ЗащитнеГ / Defendor (2009) BDRip by msltel | P, P2, A, L1 скачать через торрент бесплатно
    загрузка...
    Рейтинг →
     (голосов: 1, оценка 5/5, голосовать можно 1 раз )

    Другие торренты по теме:

  • ЗащитнеГ / Defendor (2009) BDRip-AVC | iPad
  • ЗащитнеГ / Defendor (2009) BDRip 720p by msltel | P, P2, A, L1
  • ЗащитнеГ / Defendor (2009) BDRip 1080p by msltel | P, P2, A, L1 скачать через торрент бесплатно


    • Комментарии (0):

      Информация

      Информация

        Посетители, находящиеся в группе Гости, не могут оставлять комментарии в данной новости.

        ↓ Меню



        ↓ Опрос

        А Вы добавили сайт в закладки?
        Да
        Не


        Top 10 за месяц (Фильмы)