.
Авторизация | Регистрация
» » Женщина в клетке / Мистериум. Начало / Kvinden i Buret / The Woman in the Cage (2013) BDRip 720p от GORESEWAGE скачать через торрент бесплатно




    Женщина в клетке / Мистериум. Начало / Kvinden i Buret / The Woman in the Cage (2013) BDRip 720p от GORESEWAGE скачать через торрент бесплатно

    Опубликовал: Админ | Дата: 27-02-2015, 11:10 | Просмотров: 294



    Женщина в клетке / Мистериум. Начало / Kvinden i Buret / The Woman in the Cage / The Keeper of Lost Causes

    Создали в: 2013
    Снималось в: Дания, Германия, Швеция
    Категория жанра: триллер, криминал, детектив
    Время просмотра: 01:36:33
    Перевод текста: Профессиональный (многоголосый закадровый) Позитив
    Оригинальная аудиодорожка: Danish
    Субтитры: Danish (Forced, SDH), English (Full), Finnish (Full), Norwegian (Full)
    Киностудия: Zentropa Entertainments20, Film i V?st (in co-production with), Zentropa Entertainments (co-production), Zentropa International Sweden (co-production)

    Главный режиссёр: Миккель Нёргор / Mikkel N?rgaard

    Актеры: Николай Ли Каас, Фарес Фарес, Соня Рихтер, Клаус Маак Бансен, Marie Hammer Boda, Nynne Bojsen, Расмус Ботофт, Эрнст Бойе, Michael Brostrup, Кеннет Кармон и др.

    Сюжет: Экранизация приключений детективов Карла Мерке и Асада, работающих в Департаменте Q, занимающемся глухарями. Взявшись за дело пятилетней давности об исчезновении женщины по имени Мерет они внезапно выходят на след маньяка-психопата, но преследуя его по всей стране, всё равно на шаг отстают.



    Sample

    Качество фильма: BDRip 720p
    Контейнер: MKV
    Информация о видео кодек: MPEG-4 AVC Video
    Информация о звуке кодек: DTS / AC3
    Информация о видео: MPEG-4 AVC Video / 5500 kbps / 1280x534p / 24,000 fps / 2.40:1 / High Profile 4.1
    Информация о звуке 1: Russian / AC3 / 2.0 / 48 kHz / 224 kbps / 16-bit | MVO Позитив
    Информация о звуке 2: Danish / DTS / 5.1 / 48 kHz / 1536 kbps / 24-bit | Original
    Навигация по главам: да

    Screens

    MediaInfo
    C:/GORESEWAGE/Kvinden i Buret (The Woman in the Cage aka The Keeper of Lost Causes) 2013 NOR Transfer BDRip 720p GORESEWAGE.mkv
    General
    Unique ID : 243934462560037361549360678545803839499 (0xB784118F32054CD4A78AE18626D2080B)
    Complete name : C:/GORESEWAGE/Kvinden i Buret (The Woman in the Cage aka The Keeper of Lost Causes) 2013 NOR Transfer BDRip 720p GORESEWAGE.mkv
    Format : Matroska
    Format version : Version 4 / Version 2
    File size : 4.88 GiB
    Duration : 1h 36mn
    Overall bit rate : 7 233 Kbps
    Movie name : Kvinden i Buret (The Woman in the Cage aka The Keeper of Lost Causes) 2013 NOR Transfer BDRip 720p GORESEWAGE
    Encoded date : UTC 2014-03-10 02:01:56
    Writing application : mkvmerge v6.8.0 (;Theme for Great Cities;) 64bit built on Mar 2 2014 21:34:26
    Writing library : libebml v1.3.0 libmatroska v1.4.1
    Attachment : Yes
    Video #1
    ID : 1
    Format : AVC
    Format/Info : Advanced Video Codec
    Format profile : High@L4.1
    Format settings, CABAC : Yes
    Format settings, ReFrames : 9 frames
    Codec ID : V_MPEG4/ISO/AVC
    Duration : 1h 36mn
    Bit rate : 5 500 Kbps
    Width : 1 280 pixels
    Height : 534 pixels
    Display aspect ratio : 2.40:1
    Frame rate mode : Constant
    Frame rate : 24.000 fps
    Color space : YUV
    Chroma subsampling : 4:2:0
    Bit depth : 8 bits
    Scan type : Progressive
    Bits/(Pixel*Frame) : 0.335
    Stream size : 3.61 GiB (74%)
    Title : Kvinden i Buret (The Woman in the Cage aka The Keeper of Lost Causes) 2013 NOR Transfer BDRip 720p GORESEWAGE
    Writing library : x264 core 142 r2389 956c8d8
    Encoding settings : cabac=1 / ref=9 / deblock=1:-3:-3 / analyse=0x3:0x133 / me=umh / subme=10 / psy=1 / psy_rd=1.00:0.00 / mixed_ref=1 / me_range=32 / chroma_me=1 / trellis=2 / 8x8dct=1 / cqm=0 / deadzone=21,11 / fast_pskip=1 / chroma_qp_offset=-2 / threads=16 / lookahead_threads=2 / sliced_threads=0 / nr=0 / decimate=1 / interlaced=0 / bluray_compat=0 / constrained_intra=0 / bframes=7 / b_pyramid=2 / b_adapt=1 / b_bias=0 / direct=3 / weightb=1 / open_gop=0 / weightp=2 / keyint=250 / keyint_min=23 / scenecut=40 / intra_refresh=0 / rc_lookahead=0 / rc=2pass / mbtree=0 / bitrate=5500 / ratetol=1.0 / qcomp=0.65 / qpmin=0 / qpmax=40 / qpstep=4 / cplxblur=20.0 / qblur=0.5 / vbv_maxrate=50000 / vbv_bufsize=50000 / nal_hrd=none / filler=0 / ip_ratio=1.25 / pb_ratio=1.25 / aq=1:0.60
    Language : Danish
    Default : Yes
    Forced : No
    Audio #2
    ID : 2
    Format : AC-3
    Format/Info : Audio Coding 3
    Mode extension : CM (complete main)
    Format settings, Endianness : Big
    Codec ID : A_AC3
    Duration : 1h 36mn
    Bit rate mode : Constant
    Bit rate : 224 Kbps
    Channel count : 2 channels
    Channel positions : Front: L R
    Sampling rate : 48.0 KHz
    Bit depth : 16 bits
    Compression mode : Lossy
    Stream size : 155 MiB (3%)
    Title : MVO Позитив
    Language : Russian
    Default : Yes
    Forced : No
    Audio #3
    ID : 3
    Format : DTS
    Format/Info : Digital Theater Systems
    Mode : 16
    Format settings, Endianness : Big
    Codec ID : A_DTS
    Duration : 1h 36mn
    Bit rate mode : Constant
    Bit rate : 1 509 Kbps
    Channel count : 6 channels
    Channel positions : Front: L C R, Side: L R, LFE
    Sampling rate : 48.0 KHz
    Bit depth : 24 bits
    Compression mode : Lossy
    Stream size : 1.02 GiB (21%)
    Title : Original
    Language : Danish
    Default : No
    Forced : No
    Text #4
    ID : 4
    Format : UTF-8
    Codec ID : S_TEXT/UTF8
    Codec ID/Info : UTF-8 Plain Text
    Title : Forced
    Language : Danish
    Default : No
    Forced : No
    Text #5
    ID : 5
    Format : UTF-8
    Codec ID : S_TEXT/UTF8
    Codec ID/Info : UTF-8 Plain Text
    Title : SDH
    Language : Danish
    Default : No
    Forced : No
    Text #6
    ID : 6
    Format : UTF-8
    Codec ID : S_TEXT/UTF8
    Codec ID/Info : UTF-8 Plain Text
    Title : Full
    Language : English
    Default : No
    Forced : No
    Text #7
    ID : 7
    Format : UTF-8
    Codec ID : S_TEXT/UTF8
    Codec ID/Info : UTF-8 Plain Text
    Title : Full
    Language : Finnish
    Default : No
    Forced : No
    Text #8
    ID : 8
    Format : UTF-8
    Codec ID : S_TEXT/UTF8
    Codec ID/Info : UTF-8 Plain Text
    Title : Full
    Language : Norwegian
    Default : No
    Forced : No
    Menu
    00:00:00.000 : en:00:00:00.000
    00:10:00.000 : en:00:10:00.000
    00:19:59.542 : en:00:19:59.542
    00:29:59.708 : en:00:29:59.708
    00:39:59.750 : en:00:39:59.750
    00:49:59.833 : en:00:49:59.833
    00:59:59.625 : en:00:59:59.625
    01:09:59.667 : en:01:09:59.667
    01:19:59.708 : en:01:19:59.708
    01:29:59.750 : en:01:29:59.750

    Размер скачиваемого торрента: 4.88 GB (5237967682 Bytes)

    Женщина в клетке / Мистериум. Начало / Kvinden i Buret / The Woman in the Cage (2013) BDRip 720p от GORESEWAGE скачать через торрент бесплатно
    загрузка...
    Рейтинг →
     (голосов: 1, оценка 3/5, голосовать можно 1 раз )

    Другие торренты по теме:

  • the Chemodan - Кроме женщин и детей (2012) MP3 от AGR - Generalfilm торрент скачать бесплатно
  • Янина Познянская - Как деловой женщине стать счастливой женой (2012) PDF торрент скачать бесплатно
  • Поцелуй женщины-паука / Kiss of the Spider Woman (1985) BDRip от Rulya74 торрент скачать бесплатно
  • Женщина-кошка / Catwoman (2004) HDRip-AVC торрент скачать бесплатно
  • Женщина в черном / The Woman in Black (2012) BDRip-AVC торрент скачать бесплатно
  • Маленькие женщины / Little Women (1994) HDTVRip от Scarabey | P торрент скачать бесплатно
  • Запах женщины / Scent of a Woman (1992) HDRip от Scarabey | P торрент скачать бесплатно
  • Не говоря о всех этих женщинах / Fr att inte tala om alla dessa kvinnor (1964) DVDRip от Киномагия l P торрент скачать бесплатно


    • Комментарии (0):

      Информация

      Информация

        Посетители, находящиеся в группе Гости, не могут оставлять комментарии в данной новости.

        ↓ Меню



        ↓ Опрос

        А Вы добавили сайт в закладки?
        Да
        Не


        Top 10 за неделю (Фильмы)