.
Авторизация | Регистрация
Хочешь лучшие торренты? Добавь свой email!
Добавить
» » Меркурий в опасности / Mercury Rising (1998) BDRemux 1080p от NovaLan скачать через торрент бесплатно




    Меркурий в опасности / Mercury Rising (1998) BDRemux 1080p от NovaLan скачать через торрент бесплатно

    Опубликовал: Админ | Дата: 27-02-2015, 11:10 | Просмотров: 391



    Русское название: Меркурий в опасности
    Русское название в мировом прокате: Mercury Rising
    Создали в: 1998
    Категория жанра: Боевик, драма, триллер
    Главный режиссер: Харольд Бекер
    Актеры: Брюс Уиллис, Алек Болдуин, Мико Хьюз, Чи МакБрайд, Ким Дикенс, Роберт Стэнтон, Бодхи Элфмэн, Кэрри Престон, Линдси Гинтер, Петер Стормаре, Кевин Конуэй, Джон Кэрролл Линч, Келли Хазен, Джон Домэн, Ричард Нихль, Чад Линдберг, Хэнк Харрис, Джеймс МакДональд, Камрин Менхейм, Джек Конли
    Сюжет фильма:
    Бывший сотрудник ФБР Арт Джеффрис защищает от безжалостных федеральных агентов Саймона, девятилетнего мальчика, сумевшего вскрыть новый, не поддающийся дешифровке правительственный код. Саймон может читать Меркурий, новейший шифровальный код, так же легко, как другие дети читают книги.
    Эти способности ставят под угрозу сам смысл существования новейшей разработки стоимостью миллиард долларов, особенно если враги Соединенных Штатов узнают о необыкновенном мальчике и захватят его. Глава Программы Ник Кудроу приказывает устранить угрозу безопасности страны, но он не учитывает, что в дело вмешивается Джеффрис. Преследуемые кровавыми убийцами, Саймон и Джеффрис понимают, что никому доверять нельзя.
    Время работает не на них, и детектив решает, что единственная надежда на спасение - использовать удивительные способности Саймона и призвать убийц к ответу.


    Снималось в: США, Universal Pictures, Imagine Entertainment
    Время просмотра: 01:51:28
    Перевод текста: Дублированный / Профессиональный многоголосый / Профессиональный двухголосый (Премьер Видео) / Профессиональный многоголосый (Первый Канал) / Авторский одноголосый (Юрий Живов, Вадим Назаров, Николай Антонов) / Любительский одноголосый (Неизвестный)

    Кодек для видео: WVC1
    Качество фильма: Blu-Ray Remux 1080p
    Информация о видео: VC-1, 20.4 Мбит/с, 1920x1080, 23.976 кадр/с
    Информация о звуке: Русский (DTS, 2 ch, 755 Кбит/с), (DTS, 6 ch, 755 Кбит/с), (AC3, 6 ch, 448 Кбит/с), (AC3, 2 ch, 192 Кбит/с), английский (DTS-HD MA, 6 ch, 1576 Кбит/с)
    Субтитры: Русские (форсированные), английские

    Инфо-файл

    Полное имя : E:Раздачи_EMercury.Rising.1998.BDRemux.1080p.NovaLan.mkv
    Формат : Matroska
    Версия формата : Version 4 / Version 2
    Размер файла : 20,0 Гбайт
    Продолжительность : 1 ч. 51 м.
    Режим общего битрейта : Переменный
    Общий поток : 25,6 Мбит/сек
    Название фильма : Mercury Rising 1998 - NovaLan
    Дата кодирования : UTC 2014-03-10 01:27:01
    Программа кодирования : mkvmerge v6.8.0 (;Theme for Great Cities;) 64bit built on Mar 2 2014 21:34:26
    Библиотека кодирования : libebml v1.3.0 libmatroska v1.4.1

    Видео
    Идентификатор : 1
    Формат : VC-1
    Профиль формата : Advanced@L3
    Идентификатор кодека : WVC1
    Идентификатор кодека/Подсказка : Microsoft
    Продолжительность : 1 ч. 51 м.
    Битрейт : 20,4 Мбит/сек
    Ширина : 1920 пикселей
    Высота : 1080 пикселей
    Соотношение сторон : 16:9
    Режим частоты кадров : Переменный
    Частота кадров : 23,976 кадра/сек
    Субдискретизация насыщенности : 4:2:0
    Битовая глубина : 8 бит
    Тип развёртки : Прогрессивная
    Метод сжатия : С потерями
    Бит/(Пиксели*Кадры) : 0.410
    Размер потока : 15,9 Гбайт (79%)
    Заголовок : Mercury Rising 1998 - NovaLan
    Default : Да
    Forced : Нет

    Аудио #1
    Идентификатор : 2
    Формат : DTS
    Формат/Информация : Digital Theater Systems
    Идентификатор кодека : A_DTS
    Продолжительность : 1 ч. 51 м.
    Вид битрейта : Постоянный
    Битрейт : 755 Кбит/сек
    Каналы : 2 канала
    Расположение каналов : Front: L R
    Частота : 48,0 КГц
    Битовая глубина : 24 бит
    Метод сжатия : С потерями
    Размер потока : 602 Мбайт (3%)
    Язык : Russian
    Default : Да
    Forced : Нет

    Аудио #2
    Идентификатор : 3
    Формат : DTS
    Формат/Информация : Digital Theater Systems
    Идентификатор кодека : A_DTS
    Продолжительность : 1 ч. 51 м.
    Вид битрейта : Постоянный
    Битрейт : 755 Кбит/сек
    Каналы : 6 каналов
    Расположение каналов : Front: L C R, Side: L R, LFE
    Частота : 48,0 КГц
    Битовая глубина : 24 бит
    Метод сжатия : С потерями
    Размер потока : 602 Мбайт (3%)
    Язык : Russian
    Default : Нет
    Forced : Нет

    Аудио #3
    Идентификатор : 4
    Формат : AC-3
    Формат/Информация : Audio Coding 3
    Расширение режима : CM (complete main)
    Параметр Endianness формата : Big
    Идентификатор кодека : A_AC3
    Продолжительность : 1 ч. 51 м.
    Вид битрейта : Постоянный
    Битрейт : 192 Кбит/сек
    Каналы : 2 канала
    Расположение каналов : Front: L R
    Частота : 48,0 КГц
    Битовая глубина : 16 бит
    Метод сжатия : С потерями
    Размер потока : 153 Мбайт (1%)
    Язык : Russian
    Default : Нет
    Forced : Нет

    Аудио #4
    Идентификатор : 5
    Формат : AC-3
    Формат/Информация : Audio Coding 3
    Расширение режима : CM (complete main)
    Параметр Endianness формата : Big
    Идентификатор кодека : A_AC3
    Продолжительность : 1 ч. 51 м.
    Вид битрейта : Постоянный
    Битрейт : 192 Кбит/сек
    Каналы : 2 канала
    Расположение каналов : Front: L R
    Частота : 48,0 КГц
    Битовая глубина : 16 бит
    Метод сжатия : С потерями
    Размер потока : 153 Мбайт (1%)
    Язык : Russian
    Default : Нет
    Forced : Нет

    Аудио #5
    Идентификатор : 6
    Формат : AC-3
    Формат/Информация : Audio Coding 3
    Расширение режима : CM (complete main)
    Параметр Endianness формата : Big
    Идентификатор кодека : A_AC3
    Продолжительность : 1 ч. 51 м.
    Вид битрейта : Постоянный
    Битрейт : 448 Кбит/сек
    Каналы : 6 каналов
    Расположение каналов : Front: L C R, Side: L R, LFE
    Частота : 48,0 КГц
    Битовая глубина : 16 бит
    Метод сжатия : С потерями
    Размер потока : 357 Мбайт (2%)
    Язык : Russian
    Default : Нет
    Forced : Нет

    Аудио #6
    Идентификатор : 7
    Формат : AC-3
    Формат/Информация : Audio Coding 3
    Расширение режима : CM (complete main)
    Параметр Endianness формата : Big
    Идентификатор кодека : A_AC3
    Продолжительность : 1 ч. 51 м.
    Вид битрейта : Постоянный
    Битрейт : 448 Кбит/сек
    Каналы : 6 каналов
    Расположение каналов : Front: L C R, Side: L R, LFE
    Частота : 48,0 КГц
    Битовая глубина : 16 бит
    Метод сжатия : С потерями
    Размер потока : 357 Мбайт (2%)
    Язык : Russian
    Default : Нет
    Forced : Нет

    Аудио #7
    Идентификатор : 8
    Формат : AC-3
    Формат/Информация : Audio Coding 3
    Расширение режима : CM (complete main)
    Параметр Endianness формата : Big
    Идентификатор кодека : A_AC3
    Продолжительность : 1 ч. 51 м.
    Вид битрейта : Постоянный
    Битрейт : 192 Кбит/сек
    Каналы : 2 канала
    Расположение каналов : Front: L R
    Частота : 48,0 КГц
    Битовая глубина : 16 бит
    Метод сжатия : С потерями
    Размер потока : 153 Мбайт (1%)
    Язык : Russian
    Default : Нет
    Forced : Нет

    Аудио #8
    Идентификатор : 9
    Формат : AC-3
    Формат/Информация : Audio Coding 3
    Расширение режима : CM (complete main)
    Параметр Endianness формата : Big
    Идентификатор кодека : A_AC3
    Продолжительность : 1 ч. 51 м.
    Вид битрейта : Постоянный
    Битрейт : 192 Кбит/сек
    Каналы : 2 канала
    Расположение каналов : Front: L R
    Частота : 48,0 КГц
    Битовая глубина : 16 бит
    Метод сжатия : С потерями
    Размер потока : 153 Мбайт (1%)
    Язык : Russian
    Default : Нет
    Forced : Нет

    Аудио #9
    Идентификатор : 10
    Формат : DTS
    Формат/Информация : Digital Theater Systems
    Профиль формата : MA / Core
    Идентификатор кодека : A_DTS
    Продолжительность : 1 ч. 51 м.
    Вид битрейта : Переменный
    Битрейт : 1576 Кбит/сек / 1510 Кбит/сек
    Каналы : 6 каналов
    Расположение каналов : Front: L C R, Side: L R, LFE
    Частота : 48,0 КГц
    Битовая глубина : 24 бит
    Метод сжатия : Без потерь / Lossy
    Язык : English
    Default : Нет
    Forced : Нет

    Текст #1
    Идентификатор : 11
    Формат : UTF-8
    Идентификатор кодека : S_TEXT/UTF8
    Идентификатор кодека/Информация : UTF-8 Plain Text
    Язык : Russian
    Default : Да
    Forced : Нет

    Текст #2
    Идентификатор : 12
    Формат : UTF-8
    Идентификатор кодека : S_TEXT/UTF8
    Идентификатор кодека/Информация : UTF-8 Plain Text
    Язык : English
    Default : Нет
    Forced : Нет

    Меню
    00:00:00.000 : en:Chapter 1
    00:08:45.357 : en:Chapter 2
    00:09:41.581 : en:Chapter 3
    00:11:19.553 : en:Chapter 4
    00:14:16.814 : en:Chapter 5
    00:20:00.866 : en:Chapter 6
    00:23:35.413 : en:Chapter 7
    00:28:00.095 : en:Chapter 8
    00:30:51.391 : en:Chapter 9
    00:35:19.033 : en:Chapter 10
    00:38:59.253 : en:Chapter 11
    00:43:10.713 : en:Chapter 12
    00:47:39.982 : en:Chapter 13
    00:48:51.386 : en:Chapter 14
    00:50:38.285 : en:Chapter 15
    00:53:38.965 : en:Chapter 16
    00:56:18.249 : en:Chapter 17
    01:00:49.854 : en:Chapter 18
    01:02:39.964 : en:Chapter 19
    01:06:01.165 : en:Chapter 20
    01:07:53.194 : en:Chapter 21
    01:09:35.004 : en:Chapter 22
    01:13:33.575 : en:Chapter 23
    01:16:21.868 : en:Chapter 24
    01:19:52.912 : en:Chapter 25
    01:23:31.673 : en:Chapter 26
    01:29:07.175 : en:Chapter 27
    01:34:56.357 : en:Chapter 28
    01:37:55.578 : en:Chapter 29
    01:40:44.747 : en:Chapter 30
    01:42:49.913 : en:Chapter 31
    01:43:57.898 : en:Chapter 32
    01:46:35.722 : en:Chapter 33
    01:51:20.423 : en:Chapter 34


    Спасибо за звуковые дорожки:
    (Премьер Видео) спасибо alenavova
    (Первый Канал) спасибо JUSTKANT
    (Николай Антонов) спасибо bora86bora
    (Неизвестный) спасибо Kolobroad

    Релиз группа NovaLan
    Автор сборки Sergei7721






    Релиз подготовил:


    Залил: Sergei7721
    Размер скачиваемого торрента: 19.96 GB (21434197812 Bytes)

    Меркурий в опасности / Mercury Rising (1998) BDRemux 1080p от NovaLan скачать через торрент бесплатно
    загрузка...
    Рейтинг →
     (голосов: 1, оценка 4/5, голосовать можно 1 раз )

    Другие торренты по теме:

  • Меркурий в опасности / Mercury Rising (1998) BDRip-AVC от NovaLan
  • Меркурий в опасности / Mercury Rising (1998) BDRip by msltel | D, P, P2, A, L1
  • Меркурий в опасности / Mercury Rising (1998) BDRip 720p by msltel | D, P, P2, A, L1
  • Меркурий в опасности / Mercury Rising (1998) BDRip 1080p by msltel | D, P, P2, A, L1 скачать через торрент бесплатно
  • Меркурий в опасности / Mercury Rising (1998) BDRip-AVC от NovaLan
  • Меркурий в опасности / Mercury Rising / 1998 / ДБ / Blu-Ray EUR (1080p)


    • Комментарии (0):

      Информация

      Информация

        Посетители, находящиеся в группе Гости, не могут оставлять комментарии в данной новости.

        ↓ Меню



        ↓ Опрос

        А Вы добавили сайт в закладки?
        Да
        Не


        Top 10 за месяц (Фильмы)