.
Авторизация | Регистрация
Хочешь лучшие торренты? Добавь свой email!
Добавить
» » Две разорившиеся девочки / Две девицы на мели / 2 Broke Girls (2013) HDTVRip | L1 BraveSound скачать через торрент бесплатно




    Две разорившиеся девочки / Две девицы на мели / 2 Broke Girls (2013) HDTVRip | L1 BraveSound скачать через торрент бесплатно

    Опубликовал: Админ | Дата: 27-02-2015, 11:10 | Просмотров: 222

    Две разорившиеся девочки / 2 Broke Girls / Сезон 3
    Серии 1-18 из 24
    Создали в: 2013
    Снималось в: США
    Категория жанра: Комедия
    Время просмотра: ~21 мин.
    Тип перевода:любительское (одноголосое, закадровое) BraveSound
    Субтитры: отсутствуют
    Главный режиссёр: Джон Фортенберри, Джеймс БерроузВ ролях:
    Кэт Деннингс (Макс), Бет Берс (Кэролайн), Джонатан Кит (Олег), Гаррет Моррис (Эрл), Мэттью Мой (Хан Ли).



    Сюжет: Комедия о двух девушках, которые работают официантками в забегаловке, и которых объединяет общая мечта – открыть успешный бизнес. Конечно, как только они найдут деньги для этого. Колкая, знающая жизнь Макс работает на двух работах только чтобы свести концы с концами. Одна из этих работ – ночная смена в ретро-закусочной Вильямсбург. Утонченная Кэролайн – бывшая принцесса с трастовым фондом, которой настолько не повезло, что волей-неволей пришлось стать официанткой. Сначала Макс воспринимает Кэролайн как очередную неумёху, которую Макс придется прикрывать, но к ее удивлению, Кэролайн не оказалась пустышкой. Когда Кэролайн узнала, что Макс печет потрясающие кексики, она сразу видит в этом потенциальный источник прибыли, но для бизнеса нужны деньги. Ну а пока девушки откладывают чаевые, им придется работать в закусочой вместе с Олегом, чрезмерно любвеобильным русским поваром; Эрлом, 75-летним крутым перцем, который работает на кассе; и Ханом Ли, новым владельцем закусочной. Две девушки без денег живут в дорогом городе, работают вместе, и, возможно, нашли секретный ингредиент успеха. Продюсируют сериал Майкл Патрик Кинг (Sex and the City) и Уитни Каммингс.Тип перевода:при поддержкеSEASONVAR

    Перевод - m_e_v, KFriday, the_jul, Lucid_Moon, Valerie_ant и др.

    Работа с видеоjoybang

    Качество фильма: HDTVRip
    Тип видео: AVI
    Информация о видео кодек: XviD
    Информация о звуке кодек: MP3
    Информация о видео: 720 x 400, 23.976 fps, 1 356 Kbps, 0.196 bit/pixel
    Информация о звуке RUS: 48 kHz, MP3, 2 ch, ~128 Kbps.00 kbps avg

    Информация о звуке ENG: 48 kHz, MP3, 2 ch, ~128 Kbps.00 kbps avg



    Добавлена 18 серия.
    Приятного просмотра.
    Следующая серия выходит в Америке 18-го марта.




    Скриншоты для ознакомления



    Семпл

    Семпл




    MI

    Format : AVI
    Format/Info : Audio Video Interleave
    File size : 250 MiB
    Duration : 21mn 27s
    Overall bit rate : 1 626 Kbps
    Writing application : VirtualDubMod 1.5.10.2 (build 2540/release)
    Writing library : VirtualDubMod build 2540/release

    Video
    ID : 0
    Format : MPEG-4 Visual
    Format profile : Advanced Simple@L5
    Format settings, BVOP : 2
    Format settings, QPel : No
    Format settings, GMC : No warppoints
    Format settings, Matrix : Default (MPEG)
    Codec ID : XVID
    Codec ID/Hint : XviD
    Duration : 21mn 27s
    Bit rate : 1 356 Kbps
    Width : 720 pixels
    Height : 400 pixels
    Display aspect ratio : 16:9
    Frame rate : 23.976 fps
    Color space : YUV
    Chroma subsampling : 4:2:0
    Bit depth : 8 bits
    Scan type : Progressive
    Compression mode : Lossy
    Bits/(Pixel*Frame) : 0.196
    Stream size : 208 MiB (83%)
    Writing library : XviD 64

    Audio #1
    ID : 1
    Format : MPEG Audio
    Format version : Version 1
    Format profile : Layer 3
    Mode : Joint stereo
    Codec ID : 55
    Codec ID/Hint : MP3
    Duration : 21mn 27s
    Bit rate mode : Constant
    Bit rate : 128 Kbps
    Channel(s) : 2 channels
    Sampling rate : 48.0 KHz
    Compression mode : Lossy
    Stream size : 19.7 MiB (8%)
    Alignment : Aligned on interleaves
    Interleave, duration : 42 ms (1.00 video frame)
    Interleave, preload duration : 504 ms

    Audio #2
    ID : 2
    Format : MPEG Audio
    Format version : Version 1
    Format profile : Layer 3
    Mode : Joint stereo
    Mode extension : MS Stereo
    Codec ID : 55
    Codec ID/Hint : MP3
    Duration : 21mn 27s
    Bit rate mode : Constant
    Bit rate : 128 Kbps
    Channel(s) : 2 channels
    Sampling rate : 48.0 KHz
    Compression mode : Lossy
    Stream size : 19.7 MiB (8%)
    Alignment : Aligned on interleaves
    Interleave, duration : 42 ms (1.00 video frame)
    Interleave, preload duration : 504 ms
    Writing library : LAME3.99r
    Encoding settings : -m j -V 4 -q 2 -lowpass 17 -b 128

    Внимание! Раздача ведётся путём добавления новых серий

    Внимание! Раздача ведётся путём добавления новых серий; при каждом добавлении создётся новый торрент. Чтобы начать докачку новой серии, пользователям необходимо сделать следующее:
    (1) остановить скачивание,
    (2) удалить старый торрент у себя из клиента (старые серии удалять не надо),
    (3) скачать новый торрент и запустить его у себя в клиенте вместо старого, при этом указать клиенту путь в старую папку куда и должно происходить скачивание новых серий.
    Ваш клиент при этом должен произвести хеширование (проверку) старой папки (если не производит сам - помогите ему сделать это), и будет докачивать только те серии которых у вас ещё нет. Старые серии при этом не удаляются, а продолжают раздаваться!
    Eсли вы уже удалили старые серии, то предотвратить повторную закачку старых серий можно, отжав галочку в соответствующих местах при запуске нового торрента. По возможности, желательно не удалять старые серии как можно дольше чтобы релизёр не столько продолжал раздавать старые серии, а смог сконцентрироваться на новых.

    Размер скачиваемого торрента: 4.39 GB (4712304640 Bytes)

    Две разорившиеся девочки / Две девицы на мели / 2 Broke Girls (2013) HDTVRip | L1 BraveSound скачать через торрент бесплатно
    загрузка...
    Рейтинг →
     (голосов: 1, оценка 3/5, голосовать можно 1 раз )

    Другие торренты по теме:

  • Две разорившиеся девочки / Две девицы на мели / 2 Broke Girls (2012-2013) HDTVRip | F-TRAIN
  • Две разорившиеся девочки / Две девицы на мели / 2 Broke Girls (2013) WEB-DLRip от F-TRAIN скачать через торрент бесплатно
  • Две разорившиеся девочки / Две девицы на мели / 2 Broke Girls (2013) WEB-DL 720p от F-TRAIN
  • Две разорившиеся девочки / Две девицы на мели / 2 Broke Girls (2014) HDTVRip от F-TRAIN скачать через торрент бесплатно


    • Комментарии (0):

      Информация

      Информация

        Посетители, находящиеся в группе Гости, не могут оставлять комментарии в данной новости.

        ↓ Меню



        ↓ Опрос

        А Вы добавили сайт в закладки?
        Да
        Не


        Top 10 за месяц (Фильмы)