.
Авторизация | Регистрация
» » Смерть тени / Dood van een Schaduw / Death of a Shadow (2012) WEB-DL 720p от CINEMANIA | L1 торрент скачать бесплатно




    Смерть тени / Dood van een Schaduw / Death of a Shadow (2012) WEB-DL 720p от CINEMANIA | L1 торрент скачать бесплатно

    Опубликовал: Админ | Дата: 27-02-2015, 11:10 | Просмотров: 230




    Лауреат премии Европейской киноакадемии 2013
    (лучший короткометражный фильм)
    Номинант на премию Оскар 2013
    (лучший короткометражный игровой фильм).


    Детально о кино
    Русское название: Смерть тени
    Русское название в мировом прокате: Dood van een Schaduw / Death of a Shadow
    Создали в: 2012
    Категория жанра: драма, фантастика
    Главный режиссер: Том Ван Авермат
    Актеры: Маттиас Шонартс, Лаура Верлинден, Петер ван ден Эде, Бенжамин Рамон, Амандин Цурбухен

    Сюжет фильма:
    Молодой солдат Натан погиб во время Первой мировой войны и теперь работает на загадочного коллекционера - собирает для него тени умерших людей. Когда счетчик отмерит десять тысяч пойманных теней, коллекционер отпустит тень самого Натана, и ему будет позволено вернуться к жизни, к женщине, которую он полюбил за мгновение до смерти.



    Снималось в: Бельгия, Франция
    Время просмотра: 00:20:18
    Тип перевода: Любительское (одноголосое) datynet

    Файл
    Тип видео: MKV
    Качество фильма: WEB-DL 720p iTunes
    Информация о видео: 3983 kb/s, 1280x542
    Информация о звуке: Russian: AC3, 192 kb/s (2 ch) / French: AC3, 384 kb/s (6 ch)
    Субтитры: Russian PossiblePsycho, English, Spanish, French
    Дополнительно: Сохранены оригинальные чаптеры как на Blu-Ray
    Размер скачиваемого торрента: 676 MB
    Скачать: Сэмпл

    Релиз группы:




    NFO
    Общее
    Death.of.a.Shadow.2012.WEB.DL.720p.CINEMANIA.mkv
    Формат : Matroska
    Версия формата : Version 4 / Version 2
    Размер файла : 676 Мбайт
    Продолжительность : 20 м.
    Общий поток : 4652 Кбит/сек
    Название фильма : Release Group CINEMANIA
    Дата кодирования : UTC 2014-03-11 21:38:43
    Программа кодирования : mkvmerge v6.8.0 (;Theme for Great Cities;) 64bit built on Mar 2 2014 21:34:26
    Библиотека кодирования : libebml v1.3.0 libmatroska v1.4.1

    Видео
    Идентификатор : 1
    Формат : AVC
    Формат/Информация : Advanced Video Codec
    Профиль формата : Main@L3.1
    Параметр CABAC формата : Нет
    Параметр ReFrames формата : 2 кадра
    Идентификатор кодека : V_MPEG4/ISO/AVC
    Продолжительность : 20 м.
    Битрейт : 3983 Кбит/сек
    Ширина : 1280 пикселей
    Высота : 542 пикселя
    Соотношение сторон : 2,35:1
    Режим частоты кадров : Постоянный
    Частота кадров : 24,000 кадра/сек
    Цветовое пространство : YUV
    Субдискретизация насыщенности : 4:2:0
    Битовая глубина : 8 бит
    Тип развёртки : Прогрессивная
    Бит/(Пиксели*Кадры) : 0.239
    Размер потока : 579 Мбайт (86%)
    Заголовок : Release Group CINEMANIA
    Язык : English
    Default : Да
    Forced : Нет
    Основные цвета : BT.709
    Характеристики трансфера : BT.709
    Коэффициенты матрицы : BT.709

    Аудио #1
    Идентификатор : 2
    Формат : AC-3
    Формат/Информация : Audio Coding 3
    Расширение режима : CM (complete main)
    Параметр Endianness формата : Big
    Идентификатор кодека : A_AC3
    Продолжительность : 20 м.
    Вид битрейта : Постоянный
    Битрейт : 192 Кбит/сек
    Каналы : 2 канала
    Расположение каналов : Front: L R
    Частота : 44,1 КГц
    Битовая глубина : 16 бит
    Метод сжатия : С потерями
    Размер потока : 27,9 Мбайт (4%)
    Заголовок : datynet
    Язык : Russian
    Default : Да
    Forced : Да

    Аудио #2
    Идентификатор : 3
    Формат : AC-3
    Формат/Информация : Audio Coding 3
    Расширение режима : CM (complete main)
    Параметр Endianness формата : Big
    Идентификатор кодека : A_AC3
    Продолжительность : 20 м.
    Вид битрейта : Постоянный
    Битрейт : 384 Кбит/сек
    Каналы : 6 каналов
    Расположение каналов : Front: L C R, Side: L R, LFE
    Частота : 48,0 КГц
    Битовая глубина : 16 бит
    Метод сжатия : С потерями
    Размер потока : 55,8 Мбайт (8%)
    Язык : French
    Default : Нет
    Forced : Нет

    Текст #1
    Идентификатор : 4
    Формат : UTF-8
    Идентификатор кодека : S_TEXT/UTF8
    Идентификатор кодека/Информация : UTF-8 Plain Text
    Заголовок : PossiblePsycho
    Язык : Russian
    Default : Нет
    Forced : Нет

    Текст #2
    Идентификатор : 5
    Формат : UTF-8
    Идентификатор кодека : S_TEXT/UTF8
    Идентификатор кодека/Информация : UTF-8 Plain Text
    Язык : English
    Default : Нет
    Forced : Нет

    Текст #3
    Идентификатор : 6
    Формат : UTF-8
    Идентификатор кодека : S_TEXT/UTF8
    Идентификатор кодека/Информация : UTF-8 Plain Text
    Язык : Spanish
    Default : Нет
    Forced : Нет

    Текст #4
    Идентификатор : 7
    Формат : UTF-8
    Идентификатор кодека : S_TEXT/UTF8
    Идентификатор кодека/Информация : UTF-8 Plain Text
    Язык : French
    Default : Нет
    Forced : Нет

    Меню
    00:00:00.000 : en:1
    00:06:21.000 : en:2
    00:12:26.000 : en:3
    00:19:16.000 : en:4

    Залил: DGEKIGAN
    Размер скачиваемого торрента: 675.97 MB (708807629 Bytes)

    Смерть тени / Dood van een Schaduw / Death of a Shadow (2012) WEB-DL 720p от CINEMANIA | L1 торрент скачать бесплатно
    загрузка...
    Рейтинг →
     (голосов: 1, оценка 4/5, голосовать можно 1 раз )

    Другие торренты по теме:

  • В тени смерти / Nāves ēnā / 1971 / ЛО, СТ / VHSRip скачать торрент бесплатно


    • Комментарии (0):

      Информация

      Информация

        Посетители, находящиеся в группе Гости, не могут оставлять комментарии в данной новости.

        ↓ Меню



        ↓ Опрос

        А Вы добавили сайт в закладки?
        Да
        Не


        Top 10 за неделю (Фильмы)