.
Авторизация | Регистрация
» » Меркурий в опасности / Mercury Rising (1998) BDRip by msltel | D, P, P2, A, L1 торрент скачать бесплатно




    Меркурий в опасности / Mercury Rising (1998) BDRip by msltel | D, P, P2, A, L1 торрент скачать бесплатно

    Опубликовал: Админ | Дата: 27-02-2015, 11:10 | Просмотров: 239



    Русское название: Меркурий в опасности
    Русское название в мировом прокате: Mercury Rising
    Создали в: 1998
    Категория жанра: Боевик, триллер, драма, криминал
    Снималось в: США, Universal Pictures, Imagine Entertainment
    Главный режиссер: Харольд Бекер
    Актеры: Брюс Уиллис, Алек Болдуин, Мико Хьюз, Чи МакБрайд, Ким Дикенс, Роберт Стэнтон, Бодхи Элфмэн, Кэрри Престон, Линдси Гинтер, Петер Стормаре, Кевин Конуэй, Джон Кэрролл Линч, Келли Хазен, Джон Домэн, Ричард Нихль, Чад Линдберг, Хэнк Харрис, Джеймс МакДональд, Камрин Менхейм, Джек Конли

    Сюжет фильма: Бывший сотрудник ФБР Арт Джеффрис защищает от безжалостных федеральных агентов Саймона, девятилетнего мальчика, сумевшего вскрыть новый, не поддающийся дешифровке, правительственный код. Саймон может читать Меркурий, новейший шифровальный код, так же легко, как другие дети читают книги. Эти способности ставят под угрозу сам смысл существования новейшей разработки стоимостью миллиард долларов, особенно если враги Соединенных Штатов узнают о необыкновенном мальчике и захватят его. Глава Программы Ник Кудроу приказывает устранить угрозу безопасности страны, но он не учитывает, что в дело вмешивается Джеффрис. Преследуемые кровавыми убийцами Саймон и Джеффрис понимают, что никому доверять нельзя. Время работает не на них, и детектив решает, что единственная надежда на спасение - использовать удивительные способности Саймона и призвать убийц к ответу.

    Качество фильма: BDRip
    Размер скачиваемого торрента: 3.39 ГБ
    Время просмотра: 01:51:28

    Информация о видео: XviD, 1576 kбит/с, 720x304
    Информация о звуке 1: русский, 48 kHz, AC3, 2 ch, 192 kbps avg, Дублированный
    Информация о звуке 2: русский, 48 kHz, AC3, 2 ch, 192 kbps avg, Профессиональный многоголосый, Первый канал
    Информация о звуке 3: русский, 48 kHz, AC3, 2 ch, 192 kbps avg, Профессиональный двухголосый, Премьер Видео
    Информация о звуке 4: русский, 48 kHz, AC3, 2 ch, 192 kbps avg, Авторский, Николай Антонов

    Внешние файлы
    Информация о звуке: русский, 48 kHz, AC3, 6 ch, 448 kbps avg, Авторский, Юрий Живов
    Информация о звуке: русский, 48 kHz, AC3, 6 ch, 448 kbps avg, Авторский, Вадим Назаров
    Информация о звуке: русский, 48 kHz, AC3, 6 ch, 448 kbps avg, Профессиональный многоголосый
    Информация о звуке: русский, 48 kHz, AC3, 2 ch, 192 kbps avg, Любительский одноголосый
    Информация о звуке: английский, 48 kHz, AC3, 6 ch, 448 kbps avg, Оригинал
    Субтитры: английские

    Исходник: Sergei7721 (Кинозал)

    Сравнение с исходником



    MediaInfo
    Общее
    Полное имя : D:VideoMerkurij v opasnosti.1998.XviD.BDRipMerkurij v opasnosti.1998.AVO.rus.В.Назаров.ac3
    Формат : AC-3
    Формат/Информация : Audio Coding 3
    Размер файла : 357 Мбайт
    Продолжительность : 1 ч. 51 м.
    Режим общего битрейта : Постоянный
    Общий поток : 448 Кбит/сек

    Аудио
    Формат : AC-3
    Формат/Информация : Audio Coding 3
    Расширение режима : CM (complete main)
    Параметр Endianness формата : Big
    Продолжительность : 1 ч. 51 м.
    Вид битрейта : Постоянный
    Битрейт : 448 Кбит/сек
    Каналы : 6 каналов
    Расположение каналов : Front: L C R, Side: L R, LFE
    Частота : 48,0 КГц
    Битовая глубина : 16 бит
    Метод сжатия : С потерями
    Размер потока : 357 Мбайт (100%)

    Общее
    Полное имя : D:VideoMerkurij v opasnosti.1998.XviD.BDRipMerkurij v opasnosti.1998.AVO.rus.Ю.Живов.ac3
    Формат : AC-3
    Формат/Информация : Audio Coding 3
    Размер файла : 357 Мбайт
    Продолжительность : 1 ч. 51 м.
    Режим общего битрейта : Постоянный
    Общий поток : 448 Кбит/сек

    Аудио
    Формат : AC-3
    Формат/Информация : Audio Coding 3
    Расширение режима : CM (complete main)
    Параметр Endianness формата : Big
    Продолжительность : 1 ч. 51 м.
    Вид битрейта : Постоянный
    Битрейт : 448 Кбит/сек
    Каналы : 6 каналов
    Расположение каналов : Front: L C R, Side: L R, LFE
    Частота : 48,0 КГц
    Битовая глубина : 16 бит
    Метод сжатия : С потерями
    Размер потока : 357 Мбайт (100%)

    Общее
    Полное имя : D:VideoMerkurij v opasnosti.1998.XviD.BDRipMerkurij v opasnosti.1998.eng.srt
    Формат : SubRip
    Размер файла : 98,0 Кбайт

    Текст
    Формат : SubRip
    Метод сжатия : Без потерь

    Общее
    Полное имя : D:VideoMerkurij v opasnosti.1998.XviD.BDRipMerkurij v opasnosti.1998.MVO.rus.ac3
    Формат : AC-3
    Формат/Информация : Audio Coding 3
    Размер файла : 357 Мбайт
    Продолжительность : 1 ч. 51 м.
    Режим общего битрейта : Постоянный
    Общий поток : 448 Кбит/сек

    Аудио
    Формат : AC-3
    Формат/Информация : Audio Coding 3
    Расширение режима : CM (complete main)
    Параметр Endianness формата : Big
    Продолжительность : 1 ч. 51 м.
    Вид битрейта : Постоянный
    Битрейт : 448 Кбит/сек
    Каналы : 6 каналов
    Расположение каналов : Front: L C R, Side: L R, LFE
    Частота : 48,0 КГц
    Битовая глубина : 16 бит
    Метод сжатия : С потерями
    Размер потока : 357 Мбайт (100%)

    Общее
    Полное имя : D:VideoMerkurij v opasnosti.1998.XviD.BDRipMerkurij v opasnosti.1998.Original.eng.ac3
    Формат : AC-3
    Формат/Информация : Audio Coding 3
    Размер файла : 357 Мбайт
    Продолжительность : 1 ч. 51 м.
    Режим общего битрейта : Постоянный
    Общий поток : 448 Кбит/сек

    Аудио
    Формат : AC-3
    Формат/Информация : Audio Coding 3
    Расширение режима : CM (complete main)
    Параметр Endianness формата : Big
    Продолжительность : 1 ч. 51 м.
    Вид битрейта : Постоянный
    Битрейт : 448 Кбит/сек
    Каналы : 6 каналов
    Расположение каналов : Front: L C R, Side: L R, LFE
    Частота : 48,0 КГц
    Битовая глубина : 16 бит
    Метод сжатия : С потерями
    Размер потока : 357 Мбайт (100%)

    Общее
    Полное имя : D:VideoMerkurij v opasnosti.1998.XviD.BDRipMerkurij v opasnosti.1998.VO.rus.любительский одноголосый.ac3
    Формат : AC-3
    Формат/Информация : Audio Coding 3
    Размер файла : 153 Мбайт
    Продолжительность : 1 ч. 51 м.
    Режим общего битрейта : Постоянный
    Общий поток : 192 Кбит/сек

    Аудио
    Формат : AC-3
    Формат/Информация : Audio Coding 3
    Расширение режима : CM (complete main)
    Параметр Endianness формата : Big
    Продолжительность : 1 ч. 51 м.
    Вид битрейта : Постоянный
    Битрейт : 192 Кбит/сек
    Каналы : 2 канала
    Расположение каналов : Front: L R
    Частота : 48,0 КГц
    Битовая глубина : 16 бит
    Метод сжатия : С потерями
    Размер потока : 153 Мбайт (100%)

    Общее
    Полное имя : D:VideoMerkurij v opasnosti.1998.XviD.BDRipMerkurij v opasnosti.1998.XviD.BDRip.avi
    Формат : AVI
    Формат/Информация : Audio Video Interleave
    Размер файла : 1,84 Гбайт
    Продолжительность : 1 ч. 51 м.
    Общий поток : 2368 Кбит/сек
    Программа кодирования : VirtualDubMod 1.5.10.2 (build 2540/release)
    Библиотека кодирования : VirtualDubMod build 2540/release

    Видео
    Идентификатор : 0
    Формат : MPEG-4 Visual
    Профиль формата : Advanced Simple@L5
    Параметр BVOP формата : 1
    Параметр QPel формата : Нет
    Параметр GMC формата : Без точки перехода
    Параметр матрицы формата : Default (H.263)
    Режим смешивания : Сжатый битовый поток
    Идентификатор кодека : XVID
    Идентификатор кодека/Подсказка : XviD
    Продолжительность : 1 ч. 51 м.
    Битрейт : 1576 Кбит/сек
    Ширина : 720 пикселей
    Высота : 304 пикселя
    Соотношение сторон : 2,35:1
    Частота кадров : 23,976 кадра/сек
    Цветовое пространство : YUV
    Субдискретизация насыщенности : 4:2:0
    Битовая глубина : 8 бит
    Тип развёртки : Прогрессивная
    Метод сжатия : С потерями
    Бит/(Пиксели*Кадры) : 0.300
    Размер потока : 1,23 Гбайт (67%)
    Библиотека кодирования : XviD 1.2.1 (UTC 2008-12-04)

    Аудио #1
    Идентификатор : 1
    Формат : AC-3
    Формат/Информация : Audio Coding 3
    Расширение режима : CM (complete main)
    Параметр Endianness формата : Big
    Идентификатор кодека : 2000
    Продолжительность : 1 ч. 51 м.
    Вид битрейта : Постоянный
    Битрейт : 192 Кбит/сек
    Каналы : 2 канала
    Расположение каналов : Front: L R
    Частота : 48,0 КГц
    Битовая глубина : 16 бит
    Метод сжатия : С потерями
    Размер потока : 153 Мбайт (8%)
    Выравнивание : Разделение по промежуткам
    Продолжительность промежутка : 42 мс. (1,00 видеокадр)
    Время предзагрузки промежутка : 500 мс.

    Аудио #2
    Идентификатор : 2
    Формат : AC-3
    Формат/Информация : Audio Coding 3
    Расширение режима : CM (complete main)
    Параметр Endianness формата : Big
    Идентификатор кодека : 2000
    Продолжительность : 1 ч. 51 м.
    Вид битрейта : Постоянный
    Битрейт : 192 Кбит/сек
    Каналы : 2 канала
    Расположение каналов : Front: L R
    Частота : 48,0 КГц
    Битовая глубина : 16 бит
    Метод сжатия : С потерями
    Размер потока : 153 Мбайт (8%)
    Выравнивание : Разделение по промежуткам
    Продолжительность промежутка : 42 мс. (1,00 видеокадр)
    Время предзагрузки промежутка : 500 мс.

    Аудио #3
    Идентификатор : 3
    Формат : AC-3
    Формат/Информация : Audio Coding 3
    Расширение режима : CM (complete main)
    Параметр Endianness формата : Big
    Идентификатор кодека : 2000
    Продолжительность : 1 ч. 51 м.
    Вид битрейта : Постоянный
    Битрейт : 192 Кбит/сек
    Каналы : 2 канала
    Расположение каналов : Front: L R
    Частота : 48,0 КГц
    Битовая глубина : 16 бит
    Метод сжатия : С потерями
    Размер потока : 153 Мбайт (8%)
    Выравнивание : Разделение по промежуткам
    Продолжительность промежутка : 42 мс. (1,00 видеокадр)
    Время предзагрузки промежутка : 500 мс.

    Аудио #4
    Идентификатор : 4
    Формат : AC-3
    Формат/Информация : Audio Coding 3
    Расширение режима : CM (complete main)
    Параметр Endianness формата : Big
    Идентификатор кодека : 2000
    Продолжительность : 1 ч. 51 м.
    Вид битрейта : Постоянный
    Битрейт : 192 Кбит/сек
    Каналы : 2 канала
    Расположение каналов : Front: L R
    Частота : 48,0 КГц
    Битовая глубина : 16 бит
    Метод сжатия : С потерями
    Размер потока : 153 Мбайт (8%)
    Выравнивание : Разделение по промежуткам
    Продолжительность промежутка : 42 мс. (1,00 видеокадр)
    Время предзагрузки промежутка : 500 мс.
    Скриншоты для ознакомления



    Залил: msltel
    Размер скачиваемого торрента: 3.39 GB (3635165438 Bytes)

    Меркурий в опасности / Mercury Rising (1998) BDRip by msltel | D, P, P2, A, L1 торрент скачать бесплатно
    загрузка...
    Рейтинг →
     (голосов: 1, оценка 4/5, голосовать можно 1 раз )

    Другие торренты по теме:

  • Меркурий в опасности / Mercury Rising (1998) BDRip-AVC от NovaLan торрент скачать бесплатно
  • Меркурий в опасности / Mercury Rising (1998) BDRemux 1080p от NovaLan скачать через торрент бесплатно
  • Меркурий в опасности / Mercury Rising (1998) BDRip 720p by msltel | D, P, P2, A, L1 торрент скачать бесплатно
  • Меркурий в опасности / Mercury Rising (1998) BDRip 1080p by msltel | D, P, P2, A, L1 скачать через торрент бесплатно
  • Равнины Меркурия / Mercury Plains / 2016 / ПМ / DVDRip скачать торрент бесплатно
  • Меркурий в опасности / Mercury Rising (1998) BDRip-AVC от NovaLan скачать торрент бесплатно
  • Меркурий в опасности / Mercury Rising / 1998 / ДБ / Blu-Ray EUR (1080p) скачать торрент бесплатно
  • Равнины Меркурия / Mercury Plains (2016) HDRip от MegaPeer | L скачать торрент бесплатно


    • Комментарии (0):

      Информация

      Информация

        Посетители, находящиеся в группе Гости, не могут оставлять комментарии в данной новости.

        ↓ Меню



        ↓ Опрос

        А Вы добавили сайт в закладки?
        Да
        Не


        Top 10 за неделю (Фильмы)