.
Авторизация | Регистрация
Хочешь лучшие торренты? Добавь свой email!
Добавить
» » Несносный дед / Jackass Presents: Bad Grandpa (2013) BDRemux 1080p от GORESEWAGE | Unrated | PM, A торрент скачать бесплатно




    Несносный дед / Jackass Presents: Bad Grandpa (2013) BDRemux 1080p от GORESEWAGE | Unrated | PM, A торрент скачать бесплатно

    Опубликовал: Админ | Дата: 27-02-2015, 11:10 | Просмотров: 227



    Несносный дед / Jackass Presents: Bad Grandpa

    Создали в: 2013
    Снималось в: США
    Категория жанра: комедия
    Время просмотра: 01:42:13
    Перевод текста 1: Профессиональный (многоголосый закадровый) BaibaKo
    Перевод текста 2: Авторский (одноголосый закадровый) Антон Карповский
    Оригинальная аудиодорожка: English
    Субтитры: Russian (Full), English (Full, SDH, SDH Colored), Dutch (Full), Greek (Full), French (Full), Portuguese (Full), Spanish (Full), Swedish (Full)
    Киностудия: Dickhouse Productions, MTV Films

    Главный режиссёр: Джефф Треймейн / Jeff Tremaine

    Актеры: Джонни Ноксвил, Джексон Николл, Грег Харрис, Джорджина Кэйтс, Камбер Хейлик, Джилл Килл, Мэдисон Дэвис, Джордж Фонан, Грэси Мерседес, Мэрилинн Эллейн и др.

    Сюжет: 86-летний старикан по имени Ирвинг Зисман путешествует по Америке с необычным компаньоном - восьмилетним внуком Билли.

    По дороге заводной дедушка знакомит впечатлительного Билли с людьми, местами и ситуациями, которые вряд ли укладываются в рамки привычных представлений о воспитании. Парочка столкнется со стриптизерами, разъярёнными участниками помпезного детского конкурса красоты и их не менее злыми мамашами, скорбящими посетителями панихиды, завсегдатаями бара для байкеров и другими ничего не подозревающими гражданами США.



    Sample

    Качество фильма: BDRemux 1080p (Jackass.Presents.Bad.Grandpa.2013.2in1.BluRay.1080p.AVC.DTS-HD.MA5.1-CHD)
    Контейнер: MKV
    Информация о видео кодек: MPEG-4 AVC Video
    Информация о звуке кодек: DTS-HD MA / AC3
    Информация о видео: MPEG-4 AVC Video / 29199 kbps / 1920x1080p / 23,976 fps / 16:9 / High Profile 4.1
    Информация о звуке 1: Russian / AC3 / 5.1 / 48 kHz / 384 kbps / 16-bit | MVO BaibaKo
    Информация о звуке 2: Russian / DTS-HD MA / 5.1 / 48 kHz / 3282 kbps / 24-bit | AVO Антон Карповский
    Информация о звуке 3: English / DTS-HD MA / 5.1 / 48 kHz / 3233 kbps / 24-bit | Original
    Информация о звуке 4: English / AC3 / 5.1 / 48 kHz / 640 kbps / 16-bit | Descriрtion
    Навигация по главам: да

    Screens

    MediaInfo
    C:/GORESEWAGE/Jackass Presents Bad Grandpa 2013 Unrated BDRemux 1080p GORESEWAGE.mkv
    General
    Unique ID : 188227703193299941490261801485736751804 (0x8D9B564542835435BAE3769BD98A32BC)
    Complete name : C:/GORESEWAGE/Jackass Presents Bad Grandpa 2013 Unrated BDRemux 1080p GORESEWAGE.mkv
    Format : Matroska
    Format version : Version 4 / Version 2
    File size : 26.0 GiB
    Duration : 1h 42mn
    Overall bit rate mode : Variable
    Overall bit rate : 36.5 Mbps
    Movie name : Jackass Presents: Bad Grandpa 2013 Unrated BDRemux 1080p GORESEWAGE
    Encoded date : UTC 2014-03-10 13:01:29
    Writing application : mkvmerge v6.8.0 (;Theme for Great Cities;) 64bit built on Mar 2 2014 21:34:26
    Writing library : libebml v1.3.0 libmatroska v1.4.1
    Attachment : Yes
    Video #1
    ID : 1
    Format : AVC
    Format/Info : Advanced Video Codec
    Format profile : High@L4.1
    Format settings, CABAC : Yes
    Format settings, ReFrames : 4 frames
    Codec ID : V_MPEG4/ISO/AVC
    Duration : 1h 42mn
    Bit rate mode : Variable
    Maximum bit rate : 33.0 Mbps
    Width : 1 920 pixels
    Height : 1 080 pixels
    Display aspect ratio : 16:9
    Frame rate mode : Constant
    Frame rate : 23.976 fps
    Color space : YUV
    Chroma subsampling : 4:2:0
    Bit depth : 8 bits
    Scan type : Progressive
    Title : Jackass Presents: Bad Grandpa 2013 Unrated BDRemux 1080p GORESEWAGE
    Language : English
    Default : Yes
    Forced : No
    Audio #2
    ID : 2
    Format : AC-3
    Format/Info : Audio Coding 3
    Mode extension : CM (complete main)
    Format settings, Endianness : Big
    Codec ID : A_AC3
    Duration : 1h 42mn
    Bit rate mode : Constant
    Bit rate : 384 Kbps
    Channel count : 6 channels
    Channel positions : Front: L C R, Side: L R, LFE
    Sampling rate : 48.0 KHz
    Bit depth : 16 bits
    Compression mode : Lossy
    Stream size : 281 MiB (1%)
    Title : MVO BaibaKo
    Language : Russian
    Default : Yes
    Forced : No
    Audio #3
    ID : 3
    Format : DTS
    Format/Info : Digital Theater Systems
    Format profile : MA / Core
    Mode : 16
    Format settings, Endianness : Big
    Codec ID : A_DTS
    Duration : 1h 42mn
    Bit rate mode : Variable
    Bit rate : Unknown / 1 509 Kbps
    Channel count : 6 channels
    Channel positions : Front: L C R, Side: L R, LFE
    Sampling rate : 48.0 KHz
    Bit depth : 24 bits
    Compression mode : Lossless / Lossy
    Title : AVO Антон Карповский
    Language : Russian
    Default : No
    Forced : No
    Audio #4
    ID : 4
    Format : DTS
    Format/Info : Digital Theater Systems
    Format profile : MA / Core
    Mode : 16
    Format settings, Endianness : Big
    Codec ID : A_DTS
    Duration : 1h 42mn
    Bit rate mode : Variable
    Bit rate : Unknown / 1 509 Kbps
    Channel count : 6 channels
    Channel positions : Front: L C R, Side: L R, LFE
    Sampling rate : 48.0 KHz
    Bit depth : 24 bits
    Compression mode : Lossless / Lossy
    Title : Original
    Language : English
    Default : No
    Forced : No
    Audio #5
    ID : 5
    Format : AC-3
    Format/Info : Audio Coding 3
    Mode extension : CM (complete main)
    Format settings, Endianness : Big
    Codec ID : A_AC3
    Duration : 1h 42mn
    Bit rate mode : Constant
    Bit rate : 640 Kbps
    Channel count : 6 channels
    Channel positions : Front: L C R, Side: L R, LFE
    Sampling rate : 48.0 KHz
    Bit depth : 16 bits
    Compression mode : Lossy
    Stream size : 468 MiB (2%)
    Title : Descriрtion
    Language : English
    Default : No
    Forced : No
    Text #6
    ID : 6
    Format : UTF-8
    Codec ID : S_TEXT/UTF8
    Codec ID/Info : UTF-8 Plain Text
    Title : Full
    Language : Russian
    Default : No
    Forced : No
    Text #7
    ID : 7
    Format : UTF-8
    Codec ID : S_TEXT/UTF8
    Codec ID/Info : UTF-8 Plain Text
    Title : Full
    Language : English
    Default : No
    Forced : No
    Text #8
    ID : 8
    Format : UTF-8
    Codec ID : S_TEXT/UTF8
    Codec ID/Info : UTF-8 Plain Text
    Title : SDH
    Language : English
    Default : No
    Forced : No
    Text #9
    ID : 9
    Format : UTF-8
    Codec ID : S_TEXT/UTF8
    Codec ID/Info : UTF-8 Plain Text
    Title : SDH Colored
    Language : English
    Default : No
    Forced : No
    Text #10
    ID : 10
    Format : UTF-8
    Codec ID : S_TEXT/UTF8
    Codec ID/Info : UTF-8 Plain Text
    Title : Full
    Language : Dutch
    Default : No
    Forced : No
    Text #11
    ID : 11
    Format : UTF-8
    Codec ID : S_TEXT/UTF8
    Codec ID/Info : UTF-8 Plain Text
    Title : Full
    Language : Greek
    Default : No
    Forced : No
    Text #12
    ID : 12
    Format : UTF-8
    Codec ID : S_TEXT/UTF8
    Codec ID/Info : UTF-8 Plain Text
    Title : Full
    Language : French
    Default : No
    Forced : No
    Text #13
    ID : 13
    Format : PGS
    Muxing mode : zlib
    Codec ID : S_HDMV/PGS
    Codec ID/Info : The same subtitle format used on BDs/HD-DVDs
    Title : Full
    Language : Portuguese
    Default : Yes
    Forced : No
    Text #14
    ID : 14
    Format : UTF-8
    Codec ID : S_TEXT/UTF8
    Codec ID/Info : UTF-8 Plain Text
    Title : Full
    Language : Spanish
    Default : No
    Forced : No
    Text #15
    ID : 15
    Format : UTF-8
    Codec ID : S_TEXT/UTF8
    Codec ID/Info : UTF-8 Plain Text
    Title : Full
    Language : Swedish
    Default : No
    Forced : No
    Menu
    00:00:00.000 : en:00:00:00.000
    00:07:18.772 : en:00:07:18.772
    00:18:03.082 : en:00:18:03.082
    00:25:39.413 : en:00:25:39.413
    00:32:17.352 : en:00:32:17.352
    00:42:02.562 : en:00:42:02.562
    00:48:59.395 : en:00:48:59.395
    00:57:16.308 : en:00:57:16.308
    01:04:32.911 : en:01:04:32.911
    01:11:59.774 : en:01:11:59.774
    01:18:44.303 : en:01:18:44.303
    01:26:40.862 : en:01:26:40.862
    01:33:32.231 : en:01:33:32.231

    AddInfo

    * За дорогу №1 thx BaibaKo.
    * За дорогу №2 thx Антон Карповский Ace34, arvideo, Denis2251, denis_mgn_1987, dunhill200, foxlight, Gross1978, KpucTo161, Loki, Luka69, Role, SavineX, Schmulke, shtift, vadamk, Xerman13, Диммон.

    * Обе русских озвучки содержат ненормативную лексику.

    Размер скачиваемого торрента: 26.03 GB (27946111659 Bytes)

    Несносный дед / Jackass Presents: Bad Grandpa (2013) BDRemux 1080p от GORESEWAGE | Unrated | PM, A торрент скачать бесплатно
    загрузка...
    Рейтинг →
     (голосов: 1, оценка 5/5, голосовать можно 1 раз )

    Другие торренты по теме:

  • Чудаки: Несносный дед / Jackass Presents: Bad Grandpa (2013) CAMRip от dReaM скачать через торрент бесплатно
  • Несносный дед / Jackass Presents: Bad Grandpa (2013) TS
  • Несносный дед / Jackass Presents: Bad Grandpa (2013) WEB-DLRip | L1 скачать через торрент бесплатно
  • Несносный дед / Jackass Presents: Bad Grandpa (2013) BDRip 1080p | Unrated Edition | BaibaKo
  • Несносный дед / Jackass Presents: Bad Grandpa (2013) HDRip | Baibako | Unrated Cut
  • Несносный дед / Jackass Presents: Bad Grandpa (2013) BDRip 720p | Baibako | Unrated Cut
  • Несносный дед / Jackass Presents: Bad Grandpa (2013) HDRip-AVC | Baibako | Unrated Cut скачать через торрент бесплатно
  • Несносный дед / Jackass Presents: Bad Grandpa (2013) BDRip 720p от Leonardo and Scarabey | L1 | Theatrical Cut


    • Комментарии (0):

      Информация

      Информация

        Посетители, находящиеся в группе Гости, не могут оставлять комментарии в данной новости.

        ↓ Меню



        ↓ Опрос

        А Вы добавили сайт в закладки?
        Да
        Не


        Top 10 за месяц (Фильмы)