.
Авторизация | Регистрация




Цветы зла (2013) DVDRip от NovaLan торрент скачать бесплатно

Опубликовал: Админ | Дата: 27-02-2015, 11:10 | Просмотров: 335




Снималось в: Россия
Создали в: Мосфильм
Категория жанра: Детектив
Создали в: 2013

Время просмотра: 4 x 00:45:00


Язык: Русский

Главный режиссер: Анна Легчилова


Актеры: Светлана Антонова, Дмитрий Ульянов, Александр Устюгов, Юрий Ваксман, Сергей Чирков, Мария Звонарева, Евгений Мундум, Александр Никулин, Василий Бриченко, Юлия Ромашина


Сюжет: Небольшой провинциальный городок потрясает серия жестоких убийств. Рядом с некоторыми убитыми женщинами находят странные бусинки и стихи французского поэта Шарля Бодлера из знаменитого сборника Цветы зла. Но, не смотря ни на что, полиции так и не удается выйти на след преступника. К расследованию подключается опытный психолог Ирина Елисеева. Ей предстоит составить психологический портрет преступника и разгадать его зловещий план. Но удастся ли ей остановить лавину убийств?...



Исходник: DVD9 R5

Тип релиза: DVDRip

Контейнер: AVI


Информация о видео: XviD, ~ 983 Кбит/с, 720х400
Информация о звуке: AC3, 2 ch, 448 Кбит/с



MediaInfo
Общее
Полное имя : D:1АААЦВЕТЫ ЗЛА1 серия.avi
Формат : AVI
Формат/Информация : Audio Video Interleave
Размер файла : 463 Мбайт
Продолжительность : 45 м.
Общий поток : 1437 Кбит/сек
Программа кодирования : VirtualDubMod 1.5.10.3 | www.virtualdub-fr.org || (build 2550/release)
Библиотека кодирования : VirtualDubMod build 2550/release

Видео
Идентификатор : 0
Формат : MPEG-4 Visual
Профиль формата : Advanced Simple@L5
Параметр BVOP формата : 2
Параметр QPel формата : Нет
Параметр GMC формата : Без точки перехода
Параметр матрицы формата : Default (MPEG)
Режим смешивания : Сжатый битовый поток
Идентификатор кодека : XVID
Идентификатор кодека/Подсказка : XviD
Продолжительность : 45 м.
Битрейт : 979 Кбит/сек
Ширина : 720 пикселей
Высота : 400 пикселей
Соотношение сторон : 16:9
Частота кадров : 23,976 кадра/сек
Цветовое пространство : YUV
Субдискретизация насыщенности : 4:2:0
Битовая глубина : 8 бит
Тип развёртки : Прогрессивная
Метод сжатия : С потерями
Бит/(Пиксели*Кадры) : 0.142
Размер потока : 315 Мбайт (68%)
Библиотека кодирования : XviD 1.2.1 (UTC 2008-12-04)

Аудио
Идентификатор : 1
Формат : AC-3
Формат/Информация : Audio Coding 3
Расширение режима : CM (complete main)
Параметр Endianness формата : Big
Идентификатор кодека : 2000
Продолжительность : 45 м.
Вид битрейта : Постоянный
Битрейт : 448 Кбит/сек
Каналы : 2 канала
Расположение каналов : Front: L R
Частота : 48,0 КГц
Битовая глубина : 16 бит
Метод сжатия : С потерями
Размер потока : 144 Мбайт (31%)
Выравнивание : Разделение по промежуткам
Продолжительность промежутка : 42 мс. (1,00 видеокадр)
Время предзагрузки промежутка : 500 мс.







Скриншоты для ознакомления




Релиз группа:

Автор рипа:
Залил: YArl
Размер скачиваемого торрента: 1.81 GB (1939240960 Bytes)

Цветы зла (2013) DVDRip от NovaLan торрент скачать бесплатно
загрузка...
Рейтинг →
 (голосов: 1, оценка 4/5, голосовать можно 1 раз )

Другие торренты по теме:



    Комментарии (0):

    Информация

    Информация

      Посетители, находящиеся в группе Гости, не могут оставлять комментарии в данной новости.

      ↓ Меню



      ↓ Опрос

      А Вы добавили сайт в закладки?
      Да
      Не


      Top 10 за неделю (Фильмы)