.
Авторизация | Регистрация
Хочешь лучшие торренты? Добавь свой email!
Добавить
» » Шерлок / Sherlock (2014) BDRip 720p от ExKinoRay | D | Лицензия торрент скачать бесплатно




    Шерлок / Sherlock (2014) BDRip 720p от ExKinoRay | D | Лицензия торрент скачать бесплатно

    Опубликовал: Админ | Дата: 27-02-2015, 11:10 | Просмотров: 179



    Детально о кино

    Русское название: Шерлок
    Русское название в мировом прокате: Sherlock
    Создали в: 2014
    Категория жанра: Драма, триллер, криминал, детектив
    Снималось в: Великобритания, Hartswood Films, BBC Wales, Masterpiece Theatre
    Главный режиссер: Пол МакГиган
    Актеры: Бенедикт Камбербэтч, Мартин Фриман, Уна Стаббс, Эндрю Скотт, Лара Пулвер, Лу Брили, Руперт Грейвз, Марк Гатисс, Винетт Робинсон, Джонатан Арис



    Сюжет фильма: В третьем сезон любимого сериалае, главному герою предстоит столкнуться с коварным злодеем Чарльзом Огастесом Магнуссеном. Его прототипом стал преступник, образ которого был создан самим Артуром Конан Дойлем в одном из рассказов (Конец Чарльза Огастеса Милвертона).




    Файл

    Качество фильма: ВDRip (720p)
    Информация о видео: MPEG-4 AVC, ~ 5300 Кбит/с, 1280x720, 25 кадр/с
    Информация о звуке: Русский (AC3, 2 ch, 640 Кбит/с), (DTS, 2 ch, 1509 Кбит/с), английский (DTS, 6 ch, 1509 Кбит/с)
    Размер скачиваемого торрента: 16.38 ГБ
    Время просмотра: 3 x ~ 01:29:00
    Перевод текста: Дублированный
    Субтитры: Русские, английские


    Аудио #1: Русский, AC3, 2 ch, 640 Кбит/с - Лицензия
    Аудио #2: Русский, DTS, 2 ch, 1509 Кбит/с - Лицензия
    Аудио #3: Английский, DTS, 6 ch, 1509 Кбит/с
    Сохранены оригинальные чаптеры как на Blu-Ray

    Исходник - Sherlock.S03.2014.BluRay.1080p.AVC.DTS-HD.MA.5.1.REMUX-FraMeSToR

    За полные субтитры, огромная благодарность N-Team
    Субтитры - форсированные на надписи, подсказки, смски, (Сербскую речь в 1-й серии) и полные, во всех сериях!




    Содержание

    01. Пустой Катафалк / The Empty Hearse
    02. Знак трех / The Sign of Three
    03. Последняя клятва / His Last Vow


    Инфо-файл

    Общее
    Уникальный идентификатор : 228220259193438204000071733665460471201 (0xABB19F841D1EF592AB893A6405B545A1)
    Полное имя : D:ЗагрузкиSherlock.s03.2014.BDRip.(720p).ExKinoRaySherlock.S03E01.The.Empty.Hearse.BDRip.(720p).ExKinoRay.mkv
    Формат : Matroska
    Версия формата : Version 2
    Размер файла : 5,41 Гбайт
    Продолжительность : 1 ч. 26 м.
    Общий поток : 8958 Кбит/сек
    Название фильма : Шерлок.3 сезон любимого сериала.1-я серия.(Пустой Катафалк).2014. Rip by: ollan
    Дата кодирования : UTC 2014-03-11 10:36:59
    Программа кодирования : mkvmerge v5.6.0 (;Kenya Kane;) built on May 27 2012 16:44:04
    Библиотека кодирования : libebml v1.2.3 libmatroska v1.3.0

    Видео
    Идентификатор : 1
    Формат : AVC
    Формат/Информация : Advanced Video Codec
    Профиль формата : High@L4.1
    Параметр CABAC формата : Да
    Параметр ReFrames формата : 5 кадров
    Идентификатор кодека : V_MPEG4/ISO/AVC
    Продолжительность : 1 ч. 26 м.
    Битрейт : 5300 Кбит/сек
    Ширина : 1280 пикселей
    Высота : 720 пикселей
    Соотношение сторон : 16:9
    Режим частоты кадров : Постоянный
    Частота кадров : 25,000 кадров/сек
    Цветовое пространство : YUV
    Субдискретизация насыщенности : 4:2:0
    Битовая глубина : 8 бит
    Тип развёртки : Прогрессивная
    Бит/(Пиксели*Кадры) : 0.230
    Размер потока : 3,09 Гбайт (57%)
    Библиотека кодирования : x264 core 125 r2200 999b753
    Настройки программы : cabac=1 / ref=5 / deblock=1:-3:-3 / analyse=0x3:0x133 / me=umh / subme=11 / psy=1 / psy_rd=1.00:0.10 / mixed_ref=1 / me_range=32 / chroma_me=1 / trellis=2 / 8x8dct=1 / cqm=0 / deadzone=21,11 / fast_pskip=0 / chroma_qp_offset=-3 / threads=12 / lookahead_threads=2 / sliced_threads=0 / nr=0 / decimate=0 / interlaced=0 / bluray_compat=0 / constrained_intra=0 / bframes=9 / b_pyramid=2 / b_adapt=2 / b_bias=0 / direct=3 / weightb=1 / open_gop=0 / weightp=2 / keyint=250 / keyint_min=25 / scenecut=40 / intra_refresh=0 / rc_lookahead=40 / rc=2pass / mbtree=1 / bitrate=5300 / ratetol=1.0 / qcomp=0.60 / qpmin=0 / qpmax=69 / qpstep=4 / cplxblur=20.0 / qblur=0.5 / ip_ratio=1.40 / aq=1:1.00
    Язык : English
    Default : Да
    Forced : Нет

    Аудио #1
    Идентификатор : 2
    Формат : AC-3
    Формат/Информация : Audio Coding 3
    Расширение режима : CM (complete main)
    Параметр Endianness формата : Big
    Идентификатор кодека : A_AC3
    Продолжительность : 1 ч. 26 м.
    Вид битрейта : Постоянный
    Битрейт : 640 Кбит/сек
    Каналы : 2 канала
    Расположение каналов : Front: L R
    Частота : 48,0 КГц
    Битовая глубина : 16 бит
    Метод сжатия : С потерями
    Размер потока : 396 Мбайт (7%)
    Заголовок : Дублированный (Лицензия)
    Язык : Russian
    Default : Да
    Forced : Нет

    Аудио #2
    Идентификатор : 3
    Формат : DTS
    Формат/Информация : Digital Theater Systems
    Режим : 16
    Параметр Endianness формата : Big
    Идентификатор кодека : A_DTS
    Продолжительность : 1 ч. 26 м.
    Вид битрейта : Постоянный
    Битрейт : 1509 Кбит/сек
    Каналы : 2 канала
    Расположение каналов : Front: L R
    Частота : 48,0 КГц
    Битовая глубина : 16 бит
    Метод сжатия : С потерями
    Размер потока : 934 Мбайт (17%)
    Заголовок : Дублированный (Лицензия)
    Язык : Russian
    Default : Нет
    Forced : Нет

    Аудио #3
    Идентификатор : 4
    Формат : DTS
    Формат/Информация : Digital Theater Systems
    Режим : 16
    Параметр Endianness формата : Big
    Идентификатор кодека : A_DTS
    Продолжительность : 1 ч. 26 м.
    Вид битрейта : Постоянный
    Битрейт : 1509 Кбит/сек
    Каналы : 6 каналов
    Расположение каналов : Front: L C R, Side: L R, LFE
    Частота : 48,0 КГц
    Битовая глубина : 24 бит
    Метод сжатия : С потерями
    Размер потока : 934 Мбайт (17%)
    Язык : English
    Default : Нет
    Forced : Нет

    Текст #1
    Идентификатор : 5
    Формат : UTF-8
    Идентификатор кодека : S_TEXT/UTF8
    Идентификатор кодека/Информация : UTF-8 Plain Text
    Заголовок : Forced
    Язык : Russian
    Default : Да
    Forced : Да

    Текст #2
    Идентификатор : 6
    Формат : UTF-8
    Идентификатор кодека : S_TEXT/UTF8
    Идентификатор кодека/Информация : UTF-8 Plain Text
    Заголовок : Full
    Язык : Russian
    Default : Нет
    Forced : Нет

    Текст #3
    Идентификатор : 7
    Формат : UTF-8
    Идентификатор кодека : S_TEXT/UTF8
    Идентификатор кодека/Информация : UTF-8 Plain Text
    Заголовок : Full
    Язык : English
    Default : Нет
    Forced : Нет

    Меню
    00:00:00.000 : en:00:00:00.000
    00:10:44.680 : en:00:10:44.680
    00:17:05.600 : en:00:17:05.600
    00:31:26.320 : en:00:31:26.320
    00:43:55.680 : en:00:43:55.680
    00:55:39.480 : en:00:55:39.480
    01:02:21.760 : en:01:02:21.760
    01:12:02.760 : en:01:12:02.760

    Общее
    Уникальный идентификатор : 215428460066102794967879407975993243784 (0xA21203204A325EEAA59463ABD2B4F888)
    Полное имя : D:ЗагрузкиSherlock.s03.2014.BDRip.(720p).ExKinoRaySherlock.S03E02.The.Sign.of.Three.BDRip.(720p).ExKinoRay.mkv
    Формат : Matroska
    Версия формата : Version 2
    Размер файла : 5,39 Гбайт
    Продолжительность : 1 ч. 26 м.
    Общий поток : 8959 Кбит/сек
    Название фильма : Шерлок.3 сезон любимого сериала.2-я серия.(Знак Трёх).2014. Rip by: ollan
    Дата кодирования : UTC 2014-03-11 10:39:18
    Программа кодирования : mkvmerge v5.6.0 (;Kenya Kane;) built on May 27 2012 16:44:04
    Библиотека кодирования : libebml v1.2.3 libmatroska v1.3.0

    Видео
    Идентификатор : 1
    Формат : AVC
    Формат/Информация : Advanced Video Codec
    Профиль формата : High@L4.1
    Параметр CABAC формата : Да
    Параметр ReFrames формата : 5 кадров
    Идентификатор кодека : V_MPEG4/ISO/AVC
    Продолжительность : 1 ч. 26 м.
    Битрейт : 5300 Кбит/сек
    Ширина : 1280 пикселей
    Высота : 720 пикселей
    Соотношение сторон : 16:9
    Режим частоты кадров : Постоянный
    Частота кадров : 25,000 кадров/сек
    Цветовое пространство : YUV
    Субдискретизация насыщенности : 4:2:0
    Битовая глубина : 8 бит
    Тип развёртки : Прогрессивная
    Бит/(Пиксели*Кадры) : 0.230
    Размер потока : 3,08 Гбайт (57%)
    Библиотека кодирования : x264 core 125 r2200 999b753
    Настройки программы : cabac=1 / ref=5 / deblock=1:-3:-3 / analyse=0x3:0x133 / me=umh / subme=11 / psy=1 / psy_rd=1.00:0.10 / mixed_ref=1 / me_range=32 / chroma_me=1 / trellis=2 / 8x8dct=1 / cqm=0 / deadzone=21,11 / fast_pskip=0 / chroma_qp_offset=-3 / threads=12 / lookahead_threads=2 / sliced_threads=0 / nr=0 / decimate=0 / interlaced=0 / bluray_compat=0 / constrained_intra=0 / bframes=9 / b_pyramid=2 / b_adapt=2 / b_bias=0 / direct=3 / weightb=1 / open_gop=0 / weightp=2 / keyint=250 / keyint_min=25 / scenecut=40 / intra_refresh=0 / rc_lookahead=40 / rc=2pass / mbtree=1 / bitrate=5300 / ratetol=1.0 / qcomp=0.60 / qpmin=0 / qpmax=69 / qpstep=4 / cplxblur=20.0 / qblur=0.5 / ip_ratio=1.40 / aq=1:1.00
    Язык : English
    Default : Да
    Forced : Нет

    Аудио #1
    Идентификатор : 2
    Формат : AC-3
    Формат/Информация : Audio Coding 3
    Расширение режима : CM (complete main)
    Параметр Endianness формата : Big
    Идентификатор кодека : A_AC3
    Продолжительность : 1 ч. 26 м.
    Вид битрейта : Постоянный
    Битрейт : 640 Кбит/сек
    Каналы : 2 канала
    Расположение каналов : Front: L R
    Частота : 48,0 КГц
    Битовая глубина : 16 бит
    Метод сжатия : С потерями
    Размер потока : 394 Мбайт (7%)
    Заголовок : Дублированный (Лицензия)
    Язык : Russian
    Default : Да
    Forced : Нет

    Аудио #2
    Идентификатор : 3
    Формат : DTS
    Формат/Информация : Digital Theater Systems
    Режим : 16
    Параметр Endianness формата : Big
    Идентификатор кодека : A_DTS
    Продолжительность : 1 ч. 26 м.
    Вид битрейта : Постоянный
    Битрейт : 1509 Кбит/сек
    Каналы : 2 канала
    Расположение каналов : Front: L R
    Частота : 48,0 КГц
    Битовая глубина : 16 бит
    Метод сжатия : С потерями
    Размер потока : 930 Мбайт (17%)
    Заголовок : Дублированный (Лицензия)
    Язык : Russian
    Default : Нет
    Forced : Нет

    Аудио #3
    Идентификатор : 4
    Формат : DTS
    Формат/Информация : Digital Theater Systems
    Режим : 16
    Параметр Endianness формата : Big
    Идентификатор кодека : A_DTS
    Продолжительность : 1 ч. 26 м.
    Вид битрейта : Постоянный
    Битрейт : 1509 Кбит/сек
    Каналы : 6 каналов
    Расположение каналов : Front: L C R, Side: L R, LFE
    Частота : 48,0 КГц
    Битовая глубина : 24 бит
    Метод сжатия : С потерями
    Размер потока : 930 Мбайт (17%)
    Язык : English
    Default : Нет
    Forced : Нет

    Текст #1
    Идентификатор : 5
    Формат : UTF-8
    Идентификатор кодека : S_TEXT/UTF8
    Идентификатор кодека/Информация : UTF-8 Plain Text
    Заголовок : Forced
    Язык : Russian
    Default : Да
    Forced : Да

    Текст #2
    Идентификатор : 6
    Формат : UTF-8
    Идентификатор кодека : S_TEXT/UTF8
    Идентификатор кодека/Информация : UTF-8 Plain Text
    Заголовок : Full
    Язык : Russian
    Default : Нет
    Forced : Нет

    Текст #3
    Идентификатор : 7
    Формат : UTF-8
    Идентификатор кодека : S_TEXT/UTF8
    Идентификатор кодека/Информация : UTF-8 Plain Text
    Заголовок : Full
    Язык : English
    Default : Нет
    Forced : Нет

    Меню
    00:00:00.000 : en:00:00:00.000
    00:12:03.640 : en:00:12:03.640
    00:23:41.680 : en:00:23:41.680
    00:33:44.680 : en:00:33:44.680
    00:43:30.880 : en:00:43:30.880
    00:54:44.520 : en:00:54:44.520
    01:03:22.200 : en:01:03:22.200
    01:16:46.480 : en:01:16:46.480

    Общее
    Уникальный идентификатор : 175834205863511990766347774808865689124 (0x84486FACE6A304DEB10E6EDA1B3CCE24)
    Полное имя : D:ЗагрузкиSherlock.s03.2014.BDRip.(720p).ExKinoRaySherlock.S03E03.His.Last.Vow.BDRip.(720p).ExKinoRay.mkv
    Формат : Matroska
    Версия формата : Version 2
    Размер файла : 5,58 Гбайт
    Продолжительность : 1 ч. 29 м.
    Общий поток : 8958 Кбит/сек
    Название фильма : Шерлок.3 сезон любимого сериала.3-я серия.(Последняя Kлятва).2014. Rip by: ollan
    Дата кодирования : UTC 2014-03-11 10:41:32
    Программа кодирования : mkvmerge v5.6.0 (;Kenya Kane;) built on May 27 2012 16:44:04
    Библиотека кодирования : libebml v1.2.3 libmatroska v1.3.0

    Видео
    Идентификатор : 1
    Формат : AVC
    Формат/Информация : Advanced Video Codec
    Профиль формата : High@L4.1
    Параметр CABAC формата : Да
    Параметр ReFrames формата : 5 кадров
    Идентификатор кодека : V_MPEG4/ISO/AVC
    Продолжительность : 1 ч. 29 м.
    Битрейт : 5300 Кбит/сек
    Ширина : 1280 пикселей
    Высота : 720 пикселей
    Соотношение сторон : 16:9
    Режим частоты кадров : Постоянный
    Частота кадров : 25,000 кадров/сек
    Цветовое пространство : YUV
    Субдискретизация насыщенности : 4:2:0
    Битовая глубина : 8 бит
    Тип развёртки : Прогрессивная
    Бит/(Пиксели*Кадры) : 0.230
    Размер потока : 3,19 Гбайт (57%)
    Библиотека кодирования : x264 core 125 r2200 999b753
    Настройки программы : cabac=1 / ref=5 / deblock=1:-3:-3 / analyse=0x3:0x133 / me=umh / subme=11 / psy=1 / psy_rd=1.00:0.10 / mixed_ref=1 / me_range=32 / chroma_me=1 / trellis=2 / 8x8dct=1 / cqm=0 / deadzone=21,11 / fast_pskip=0 / chroma_qp_offset=-3 / threads=12 / lookahead_threads=2 / sliced_threads=0 / nr=0 / decimate=0 / interlaced=0 / bluray_compat=0 / constrained_intra=0 / bframes=9 / b_pyramid=2 / b_adapt=2 / b_bias=0 / direct=3 / weightb=1 / open_gop=0 / weightp=2 / keyint=250 / keyint_min=25 / scenecut=40 / intra_refresh=0 / rc_lookahead=40 / rc=2pass / mbtree=1 / bitrate=5300 / ratetol=1.0 / qcomp=0.60 / qpmin=0 / qpmax=69 / qpstep=4 / cplxblur=20.0 / qblur=0.5 / ip_ratio=1.40 / aq=1:1.00
    Язык : English
    Default : Да
    Forced : Нет

    Аудио #1
    Идентификатор : 2
    Формат : AC-3
    Формат/Информация : Audio Coding 3
    Расширение режима : CM (complete main)
    Параметр Endianness формата : Big
    Идентификатор кодека : A_AC3
    Продолжительность : 1 ч. 29 м.
    Вид битрейта : Постоянный
    Битрейт : 640 Кбит/сек
    Каналы : 2 канала
    Расположение каналов : Front: L R
    Частота : 48,0 КГц
    Битовая глубина : 16 бит
    Метод сжатия : С потерями
    Размер потока : 408 Мбайт (7%)
    Заголовок : Дублированный (Лицензия)
    Язык : Russian
    Default : Да
    Forced : Нет

    Аудио #2
    Идентификатор : 3
    Формат : DTS
    Формат/Информация : Digital Theater Systems
    Режим : 16
    Параметр Endianness формата : Big
    Идентификатор кодека : A_DTS
    Продолжительность : 1 ч. 29 м.
    Вид битрейта : Постоянный
    Битрейт : 1509 Кбит/сек
    Каналы : 2 канала
    Расположение каналов : Front: L R
    Частота : 48,0 КГц
    Битовая глубина : 16 бит
    Метод сжатия : С потерями
    Размер потока : 963 Мбайт (17%)
    Заголовок : Дублированный (Лицензия)
    Язык : Russian
    Default : Нет
    Forced : Нет

    Аудио #3
    Идентификатор : 4
    Формат : DTS
    Формат/Информация : Digital Theater Systems
    Режим : 16
    Параметр Endianness формата : Big
    Идентификатор кодека : A_DTS
    Продолжительность : 1 ч. 29 м.
    Вид битрейта : Постоянный
    Битрейт : 1509 Кбит/сек
    Каналы : 6 каналов
    Расположение каналов : Front: L C R, Side: L R, LFE
    Частота : 48,0 КГц
    Битовая глубина : 24 бит
    Метод сжатия : С потерями
    Размер потока : 963 Мбайт (17%)
    Язык : English
    Default : Нет
    Forced : Нет

    Текст #1
    Идентификатор : 5
    Формат : UTF-8
    Идентификатор кодека : S_TEXT/UTF8
    Идентификатор кодека/Информация : UTF-8 Plain Text
    Заголовок : Forced
    Язык : Russian
    Default : Да
    Forced : Да

    Текст #2
    Идентификатор : 6
    Формат : UTF-8
    Идентификатор кодека : S_TEXT/UTF8
    Идентификатор кодека/Информация : UTF-8 Plain Text
    Заголовок : Full
    Язык : Russian
    Default : Нет
    Forced : Нет

    Текст #3
    Идентификатор : 7
    Формат : UTF-8
    Идентификатор кодека : S_TEXT/UTF8
    Идентификатор кодека/Информация : UTF-8 Plain Text
    Заголовок : Full
    Язык : English
    Default : Нет
    Forced : Нет

    Меню
    00:00:00.000 : en:00:00:00.000
    00:11:55.440 : en:00:11:55.440
    00:28:02.480 : en:00:28:02.480
    00:41:33.560 : en:00:41:33.560
    00:47:16.280 : en:00:47:16.280
    01:02:59.720 : en:01:02:59.720
    01:10:35.560 : en:01:10:35.560
    01:23:49.800 : en:01:23:49.800



    Скриншоты для ознакомления






    Релиз подготовил: Rip by:
    Размер скачиваемого торрента: 16.38 GB (17592083242 Bytes)

    Шерлок / Sherlock (2014) BDRip 720p от ExKinoRay | D | Лицензия торрент скачать бесплатно
    загрузка...
    Рейтинг →
     (голосов: 1, оценка 5/5, голосовать можно 1 раз )

    Другие торренты по теме:

  • Шерлок / Sherlock (2012) 4xDVD5
  • Том и Джерри: Шерлок Холмс / Tom Jerry Meet Sherlock Holmes (2010) BDRip-AVC | iPad
  • Шерлок Холмс против Джека Потрошителя (2009) PC | Лицензия
  • OST - Шерлок Холмс: Игра теней - Soundtrack (2011) MP3
  • Шерлок Холмс и секрет Ктулху (2007) PC | RePack от R.G. UPG
  • Мемуары Шерлокa Холмсa. Шерлок Холмс присмерти / The Memoirs of Sherlock Holmes.The dying detective (1994) IPTVRip от Generalfilm
  • Шерлок Холмс: Игра теней / Sherlock Holmes: A Game of Shadows (2011) BDRip от HQCLUB | ReRip
  • Шерлок Холмс: Дилогия / Sherlock Holmes: Dilogy (2009-2011) BDRip 1080p


    • Комментарии (0):

      Информация

      Информация

        Посетители, находящиеся в группе Гости, не могут оставлять комментарии в данной новости.

        ↓ Меню



        ↓ Опрос

        А Вы добавили сайт в закладки?
        Да
        Не


        Top 10 за месяц (Фильмы)