.
Авторизация | Регистрация
Хочешь лучшие торренты? Добавь свой email!
Добавить
» » Голодные игры: И вспыхнет пламя / The Hunger Games: Catching Fire (2013) BDRip 1080p от GORESEWAGE | IMAX Edition | Лицензия скачать через торрент бесплатно




    Голодные игры: И вспыхнет пламя / The Hunger Games: Catching Fire (2013) BDRip 1080p от GORESEWAGE | IMAX Edition | Лицензия скачать через торрент бесплатно

    Опубликовал: Админ | Дата: 27-02-2015, 11:10 | Просмотров: 245



    Голодные игры: И вспыхнет пламя / The Hunger Games: Catching Fire

    Создали в: 2013
    Снималось в: США
    Категория жанра: фантастика, боевик, триллер, приключения
    Время просмотра: 02:26:14
    Перевод текста: Профессиональный (дублированный) RUS BD
    Оригинальная аудиодорожка: English
    Субтитры: Russian (Full RUS BD), English (Full, SDH, SDH Colored), Greek (Full), Spanish (Full)
    Киностудия: Color Force, Lionsgate

    Главный режиссёр: Френсис Лоуренс / Francis Lawrence

    Актеры: Дженнифер Лоуренс, Джош Хатчерсон, Сэм Клафлин, Джена Мэлоун, Вуди Харрельсон, Элизабет Бэнкс, Лиам Хемсворт, Дональд Сазерленд, Филип Сеймур Хоффман, Стэнли Туччи и др.

    Сюжет: Сумев выжить на безжалостных Голодных играх, Китнисс Эвердин и Пит Мелларк возвращаются домой. Но теперь они в ещё большей опасности, так как своим отказом играть по правилам на Арене бросили вызов Капитолию. По традиции следующие, юбилейные, Голодные игры должны стать особенными, и в этот раз в них участвуют только победители прошлых лет. Китнисс и Пит вынуждены вновь выйти на Арену, где будут соперничать с сильнейшими. Правила игры меняются. Арена еще опасней, масштаб ещё больше, ставки ещё выше!



    Sample

    Качество фильма: BDRip 1080p (HDMaNiAcS)
    Контейнер: MKV
    Информация о видео кодек: MPEG-4 AVC Video
    Информация о звуке кодек: DTS / AC3
    Информация о видео: MPEG-4 AVC Video / 15000 kbps / 1920x1080p / 23,976 fps / 16:9 / High Profile 4.1
    Информация о звуке 1: Russian / DTS / 5.1 / 48 kHz / 1536 kbps / 16-bit | Dub RUS BD
    Информация о звуке 2: Russian / AC3 / 5.1 / 48 kHz / 640 kbps / 16-bit | Dub RUS BD
    Информация о звуке 3: English / DTS / 5.1 / 48 kHz / 1536 kbps / 24-bit | Original
    Информация о звуке 4: English / AC3 / 5.1 / 48 kHz / 640 kbps / 16-bit | Original
    Информация о звуке 5: English / AC3 / 2.0 / 48 kHz / 224 kbps / 16-bit | Descriрtion
    Информация о звуке 6: English / AC3 / 2.0 / 48 kHz / 224 kbps / 16-bit | Commentary by director Francis Lawrence producer Nina Jacobson
    Навигация по главам: да

    Screens

    MediaInfo
    C:/GORESEWAGE/The Hunger Games Catching Fire 2013 IMAX Edition US Transfer BDRip 1080p GORESEWAGE.mkv
    General
    Unique ID : 207050467512559080089456120947431261041 (0x9BC47833A77D604D9943A6C9D9054371)
    Complete name : C:/GORESEWAGE/The Hunger Games Catching Fire 2013 IMAX Edition US Transfer BDRip 1080p GORESEWAGE.mkv
    Format : Matroska
    Format version : Version 4 / Version 2
    File size : 20.2 GiB
    Duration : 2h 26mn
    Overall bit rate : 19.8 Mbps
    Movie name : The Hunger Games: Catching Fire 2013 IMAX Edition US Transfer BDRip 1080p GORESEWAGE
    Encoded date : UTC 2014-03-12 13:51:38
    Writing application : mkvmerge v6.8.0 (;Theme for Great Cities;) 64bit built on Mar 2 2014 21:34:26
    Writing library : libebml v1.3.0 libmatroska v1.4.1
    Attachment : Yes
    Video #1
    ID : 1
    Format : AVC
    Format/Info : Advanced Video Codec
    Format profile : High@L4.1
    Format settings, CABAC : Yes
    Format settings, ReFrames : 4 frames
    Codec ID : V_MPEG4/ISO/AVC
    Duration : 2h 26mn
    Bit rate : 15.0 Mbps
    Width : 1 920 pixels
    Height : 1 080 pixels
    Display aspect ratio : 16:9
    Frame rate mode : Constant
    Frame rate : 23.976 fps
    Color space : YUV
    Chroma subsampling : 4:2:0
    Bit depth : 8 bits
    Scan type : Progressive
    Bits/(Pixel*Frame) : 0.302
    Stream size : 14.9 GiB (74%)
    Title : The Hunger Games: Catching Fire 2013 IMAX Edition US Transfer BDRip 1080p GORESEWAGE
    Writing library : x264 core 138 r2358kMod 9e941d1
    Encoding settings : cabac=1 / ref=4 / deblock=1:-3:-3 / analyse=0x3:0x113 / me=tesa / subme=11 / psy=1 / fade_compensate=0.00 / psy_rd=1.10:0.00 / mixed_ref=1 / me_range=32 / chroma_me=1 / trellis=2 / 8x8dct=1 / cqm=0 / deadzone=21,11 / fast_pskip=0 / chroma_qp_offset=-2 / threads=18 / lookahead_threads=3 / sliced_threads=0 / nr=0 / decimate=0 / interlaced=0 / bluray_compat=0 / constrained_intra=0 / bframes=8 / b_pyramid=2 / b_adapt=2 / b_bias=0 / direct=3 / weightb=1 / open_gop=0 / weightp=2 / keyint=250 / keyint_min=23 / scenecut=40 / intra_refresh=0 / rc_lookahead=40 / rc=2pass / mbtree=0 / bitrate=15000 / ratetol=1.0 / qcomp=0.60 / qpmin=10 / qpmax=69 / qpstep=4 / cplxblur=20.0 / qblur=0.5 / vbv_maxrate=40000 / vbv_bufsize=30000 / nal_hrd=none / ip_ratio=1.35 / pb_ratio=1.10 / aq=3:0.80
    Language : English
    Default : Yes
    Forced : No
    Audio #2
    ID : 2
    Format : DTS
    Format/Info : Digital Theater Systems
    Mode : 16
    Format settings, Endianness : Big
    Codec ID : A_DTS
    Duration : 2h 26mn
    Bit rate mode : Constant
    Bit rate : 1 509 Kbps
    Channel count : 6 channels
    Channel positions : Front: L C R, Side: L R, LFE
    Sampling rate : 48.0 KHz
    Bit depth : 16 bits
    Compression mode : Lossy
    Stream size : 1.54 GiB (8%)
    Title : Dub RUS BD
    Language : Russian
    Default : Yes
    Forced : No
    Audio #3
    ID : 3
    Format : AC-3
    Format/Info : Audio Coding 3
    Mode extension : CM (complete main)
    Format settings, Endianness : Big
    Codec ID : A_AC3
    Duration : 2h 26mn
    Bit rate mode : Constant
    Bit rate : 640 Kbps
    Channel count : 6 channels
    Channel positions : Front: L C R, Side: L R, LFE
    Sampling rate : 48.0 KHz
    Bit depth : 16 bits
    Compression mode : Lossy
    Stream size : 669 MiB (3%)
    Title : Dub RUS BD
    Language : Russian
    Default : No
    Forced : No
    Audio #4
    ID : 4
    Format : DTS
    Format/Info : Digital Theater Systems
    Mode : 16
    Format settings, Endianness : Big
    Codec ID : A_DTS
    Duration : 2h 26mn
    Bit rate mode : Constant
    Bit rate : 1 509 Kbps
    Channel count : 6 channels
    Channel positions : Front: L C R, Side: L R, LFE
    Sampling rate : 48.0 KHz
    Bit depth : 24 bits
    Compression mode : Lossy
    Stream size : 1.54 GiB (8%)
    Title : Original
    Language : English
    Default : No
    Forced : No
    Audio #5
    ID : 5
    Format : AC-3
    Format/Info : Audio Coding 3
    Mode extension : CM (complete main)
    Format settings, Endianness : Big
    Codec ID : A_AC3
    Duration : 2h 26mn
    Bit rate mode : Constant
    Bit rate : 640 Kbps
    Channel count : 6 channels
    Channel positions : Front: L C R, Side: L R, LFE
    Sampling rate : 48.0 KHz
    Bit depth : 16 bits
    Compression mode : Lossy
    Stream size : 669 MiB (3%)
    Title : Original
    Language : English
    Default : No
    Forced : No
    Audio #6
    ID : 6
    Format : AC-3
    Format/Info : Audio Coding 3
    Format profile : Dolby Digital
    Mode extension : CM (complete main)
    Format settings, Endianness : Big
    Codec ID : A_AC3
    Duration : 2h 26mn
    Bit rate mode : Constant
    Bit rate : 224 Kbps
    Channel count : 2 channels
    Channel positions : Front: L R
    Sampling rate : 48.0 KHz
    Bit depth : 16 bits
    Compression mode : Lossy
    Stream size : 234 MiB (1%)
    Title : Descriрtion
    Language : English
    Default : No
    Forced : No
    Audio #7
    ID : 7
    Format : AC-3
    Format/Info : Audio Coding 3
    Format profile : Dolby Digital
    Mode extension : CM (complete main)
    Format settings, Endianness : Big
    Codec ID : A_AC3
    Duration : 2h 26mn
    Bit rate mode : Constant
    Bit rate : 224 Kbps
    Channel count : 2 channels
    Channel positions : Front: L R
    Sampling rate : 48.0 KHz
    Bit depth : 16 bits
    Compression mode : Lossy
    Stream size : 234 MiB (1%)
    Title : Commentary by diector Francis Lawrence producer Nina Jacobson
    Language : English
    Default : No
    Forced : No
    Text #8
    ID : 8
    Format : UTF-8
    Codec ID : S_TEXT/UTF8
    Codec ID/Info : UTF-8 Plain Text
    Title : Full RUS BD
    Language : Russian
    Default : No
    Forced : No
    Text #9
    ID : 9
    Format : UTF-8
    Codec ID : S_TEXT/UTF8
    Codec ID/Info : UTF-8 Plain Text
    Title : Full
    Language : English
    Default : No
    Forced : No
    Text #10
    ID : 10
    Format : UTF-8
    Codec ID : S_TEXT/UTF8
    Codec ID/Info : UTF-8 Plain Text
    Title : SDH
    Language : English
    Default : No
    Forced : No
    Text #11
    ID : 11
    Format : UTF-8
    Codec ID : S_TEXT/UTF8
    Codec ID/Info : UTF-8 Plain Text
    Title : SDH Colored
    Language : English
    Default : No
    Forced : No
    Text #12
    ID : 12
    Format : UTF-8
    Codec ID : S_TEXT/UTF8
    Codec ID/Info : UTF-8 Plain Text
    Title : Full
    Language : Greek
    Default : No
    Forced : No
    Text #13
    ID : 13
    Format : PGS
    Muxing mode : zlib
    Codec ID : S_HDMV/PGS
    Codec ID/Info : The same subtitle format used on BDs/HD-DVDs
    Title : Full
    Language : Spanish
    Default : No
    Forced : No
    Menu
    00:00:00.000 : en:00:00:00.000
    00:11:24.684 : en:00:11:24.684
    00:16:48.049 : en:00:16:48.049
    00:25:38.078 : en:00:25:38.078
    00:35:51.649 : en:00:35:51.649
    00:44:22.576 : en:00:44:22.576
    00:52:12.921 : en:00:52:12.921
    01:01:11.376 : en:01:01:11.376
    01:08:12.213 : en:01:08:12.213
    01:16:48.938 : en:01:16:48.938
    01:22:39.663 : en:01:22:39.663
    01:29:21.731 : en:01:29:21.731
    01:40:43.913 : en:01:40:43.913
    01:50:47.766 : en:01:50:47.766
    02:02:46.984 : en:02:02:46.984
    02:09:58.958 : en:02:09:58.958

    AddInfo
    * По многочисленным просьбам трудящихся, у кого ящиГ не читает DTS - дороги Dub RUS BD Original добавлены в AC3.

    Размер скачиваемого торрента: 20.18 GB (21668308323 Bytes)

    Голодные игры: И вспыхнет пламя / The Hunger Games: Catching Fire (2013) BDRip 1080p от GORESEWAGE | IMAX Edition | Лицензия скачать через торрент бесплатно
    загрузка...
    Рейтинг →
     (голосов: 1, оценка 3/5, голосовать можно 1 раз )

    Другие торренты по теме:

  • Голодные игры / The Hunger Games (2012) HDRip
  • Сьюзен Коллинз / Suzanne Collins - Голодные игры (2010-2011) fb2
  • Голодные игры: И вспыхнет пламя / The Hunger Games: Catching Fire (2013) HD 1080p | Трейлер-тизер
  • Голодные игры (2013) SATRip
  • OST - Голодные игры / The Hunger Games (2012) MP3 скачать через торрент бесплатно
  • Пусть говорят - Голодные игры (2013) HDTVRip от MediaClub скачать через торрент бесплатно
  • OST - Голодные игры: И вспыхнет пламя / Hunger Games: Catching Fire (2013) MP3
  • Голодные игры: И вспыхнет пламя / The Hunger Games: Catching Fire (2013) DCPrip | Трейлер


    • Комментарии (0):

      Информация

      Информация

        Посетители, находящиеся в группе Гости, не могут оставлять комментарии в данной новости.

        ↓ Меню



        ↓ Опрос

        А Вы добавили сайт в закладки?
        Да
        Не


        Top 10 за месяц (Фильмы)