.
Авторизация | Регистрация
Хочешь лучшие торренты? Добавь свой email!
Добавить
» » Меркурий в опасности / Mercury Rising (1998) BDRip 1080p by msltel | D, P, P2, A, L1 скачать через торрент бесплатно




    Меркурий в опасности / Mercury Rising (1998) BDRip 1080p by msltel | D, P, P2, A, L1 скачать через торрент бесплатно

    Опубликовал: Админ | Дата: 27-02-2015, 11:10 | Просмотров: 235



    Русское название: Меркурий в опасности
    Русское название в мировом прокате: Mercury Rising
    Создали в: 1998
    Категория жанра: Боевик, триллер, драма, криминал
    Снималось в: США, Universal Pictures, Imagine Entertainment
    Главный режиссер: Харольд Бекер
    Актеры: Брюс Уиллис, Алек Болдуин, Мико Хьюз, Чи МакБрайд, Ким Дикенс, Роберт Стэнтон, Бодхи Элфмэн, Кэрри Престон, Линдси Гинтер, Петер Стормаре, Кевин Конуэй, Джон Кэрролл Линч, Келли Хазен, Джон Домэн, Ричард Нихль, Чад Линдберг, Хэнк Харрис, Джеймс МакДональд, Камрин Менхейм, Джек Конли

    Сюжет фильма: Бывший сотрудник ФБР Арт Джеффрис защищает от безжалостных федеральных агентов Саймона, девятилетнего мальчика, сумевшего вскрыть новый, не поддающийся дешифровке, правительственный код. Саймон может читать Меркурий, новейший шифровальный код, так же легко, как другие дети читают книги. Эти способности ставят под угрозу сам смысл существования новейшей разработки стоимостью миллиард долларов, особенно если враги Соединенных Штатов узнают о необыкновенном мальчике и захватят его. Глава Программы Ник Кудроу приказывает устранить угрозу безопасности страны, но он не учитывает, что в дело вмешивается Джеффрис. Преследуемые кровавыми убийцами Саймон и Джеффрис понимают, что никому доверять нельзя. Время работает не на них, и детектив решает, что единственная надежда на спасение - использовать удивительные способности Саймона и призвать убийц к ответу.

    Качество фильма: BDRip 1080p
    Размер скачиваемого торрента: 11.04 ГБ
    Время просмотра: 01:51:28

    Информация о видео: MPEG-4 AVC, 8608 kбит/с, 1920x814
    Информация о звуке 1: русский, 48 kHz, DTS, 2 ch, 768 kbps avg, Дублированный
    Информация о звуке 2: русский, 48 kHz, DTS, 6 ch, 755 kbps avg, Профессиональный многоголосый
    Информация о звуке 3: русский, 48 kHz, AC3, 2 ch, 192 kbps avg, Профессиональный многоголосый, Первый канал
    Информация о звуке 4: русский, 48 kHz, AC3, 2 ch, 192 kbps avg, Профессиональный двухголосый, Премьер Видео
    Информация о звуке 5: русский, 48 kHz, AC3, 2 ch, 192 kbps avg, Авторский, Николай Антонов
    Информация о звуке 6: русский, 48 kHz, AC3, 6 ch, 448 kbps avg, Авторский, Юрий Живов
    Информация о звуке 7: русский, 48 kHz, AC3, 6 ch, 448 kbps avg, Авторский, Вадим Назаров
    Субтитры: русские (надписи и пр.)

    Внешние файлы
    Информация о звуке: русский, 48 kHz, AC3, 2 ch, 192 kbps avg, Дублированный
    Информация о звуке: русский, 48 kHz, AC3, 6 ch, 448 kbps avg, Профессиональный многоголосый
    Информация о звуке: русский, 48 kHz, AC3, 2 ch, 192 kbps avg, Любительский одноголосый
    Информация о звуке: английский, 48 kHz, DTS, 6 ch, 1509 kbps avg, Оригинал
    Субтитры: английские

    Имеются неименованные главы/чаптеры.

    Исходник: Sergei7721 (Кинозал)

    Сравнение с исходником



    MediaInfo Лог х264
    Общее
    Полное имя : D:VideoMerkurij v opasnosti.1998.x264.BDRip.1080pMerkurij v opasnosti.1998.DUB.rus.ac3
    Формат : AC-3
    Формат/Информация : Audio Coding 3
    Размер файла : 153 Мбайт
    Продолжительность : 1 ч. 51 м.
    Режим общего битрейта : Постоянный
    Общий поток : 192 Кбит/сек

    Аудио
    Формат : AC-3
    Формат/Информация : Audio Coding 3
    Расширение режима : CM (complete main)
    Параметр Endianness формата : Big
    Продолжительность : 1 ч. 51 м.
    Вид битрейта : Постоянный
    Битрейт : 192 Кбит/сек
    Каналы : 2 канала
    Расположение каналов : Front: L R
    Частота : 48,0 КГц
    Битовая глубина : 16 бит
    Метод сжатия : С потерями
    Размер потока : 153 Мбайт (100%)

    Общее
    Полное имя : D:VideoMerkurij v opasnosti.1998.x264.BDRip.1080pMerkurij v opasnosti.1998.eng.srt
    Формат : SubRip
    Размер файла : 98,0 Кбайт

    Текст
    Формат : SubRip
    Метод сжатия : Без потерь

    Общее
    Полное имя : D:VideoMerkurij v opasnosti.1998.x264.BDRip.1080pMerkurij v opasnosti.1998.MVO.rus.ac3
    Формат : AC-3
    Формат/Информация : Audio Coding 3
    Размер файла : 357 Мбайт
    Продолжительность : 1 ч. 51 м.
    Режим общего битрейта : Постоянный
    Общий поток : 448 Кбит/сек

    Аудио
    Формат : AC-3
    Формат/Информация : Audio Coding 3
    Расширение режима : CM (complete main)
    Параметр Endianness формата : Big
    Продолжительность : 1 ч. 51 м.
    Вид битрейта : Постоянный
    Битрейт : 448 Кбит/сек
    Каналы : 6 каналов
    Расположение каналов : Front: L C R, Side: L R, LFE
    Частота : 48,0 КГц
    Битовая глубина : 16 бит
    Метод сжатия : С потерями
    Размер потока : 357 Мбайт (100%)

    Общее
    Полное имя : D:VideoMerkurij v opasnosti.1998.x264.BDRip.1080pMerkurij v opasnosti.1998.Original.eng.dts
    Формат : DTS
    Формат/Информация : Digital Theater Systems
    Размер файла : 1,17 Гбайт
    Продолжительность : 1 ч. 51 м.
    Режим общего битрейта : Постоянный
    Общий поток : 1509 Кбит/сек

    Аудио
    Формат : DTS
    Формат/Информация : Digital Theater Systems
    Режим : 16
    Параметр Endianness формата : Big
    Продолжительность : 1 ч. 51 м.
    Вид битрейта : Постоянный
    Битрейт : 1509 Кбит/сек
    Каналы : 6 каналов
    Расположение каналов : Front: L C R, Side: L R, LFE
    Частота : 48,0 КГц
    Битовая глубина : 24 бит
    Метод сжатия : С потерями
    Размер потока : 1,17 Гбайт (100%)

    Общее
    Полное имя : D:VideoMerkurij v opasnosti.1998.x264.BDRip.1080pMerkurij v opasnosti.1998.VO.rus.любительский одноголосый.ac3
    Формат : AC-3
    Формат/Информация : Audio Coding 3
    Размер файла : 153 Мбайт
    Продолжительность : 1 ч. 51 м.
    Режим общего битрейта : Постоянный
    Общий поток : 192 Кбит/сек

    Аудио
    Формат : AC-3
    Формат/Информация : Audio Coding 3
    Расширение режима : CM (complete main)
    Параметр Endianness формата : Big
    Продолжительность : 1 ч. 51 м.
    Вид битрейта : Постоянный
    Битрейт : 192 Кбит/сек
    Каналы : 2 канала
    Расположение каналов : Front: L R
    Частота : 48,0 КГц
    Битовая глубина : 16 бит
    Метод сжатия : С потерями
    Размер потока : 153 Мбайт (100%)

    Общее
    Уникальный идентификатор : 248990035722481721521186410555947233668 (0xBB51BC8F896AAC4F8681E6C5F5C23184)
    Полное имя : D:VideoMerkurij v opasnosti.1998.x264.BDRip.1080pMerkurij v opasnosti.1998.x264.BDRip.1080p.mkv
    Формат : Matroska
    Версия формата : Version 4 / Version 2
    Размер файла : 9,22 Гбайт
    Продолжительность : 1 ч. 51 м.
    Общий поток : 11,8 Мбит/сек
    Дата кодирования : UTC 2014-03-12 08:25:29
    Программа кодирования : mkvmerge v6.7.0 (;Back to the Ground;) 64bit built on Jan 8 2014 15:10:52
    Библиотека кодирования : libebml v1.3.0 libmatroska v1.4.1

    Видео
    Идентификатор : 1
    Формат : AVC
    Формат/Информация : Advanced Video Codec
    Профиль формата : High@L4.1
    Параметр CABAC формата : Да
    Параметр ReFrames формата : 4 кадра
    Идентификатор кодека : V_MPEG4/ISO/AVC
    Продолжительность : 1 ч. 51 м.
    Битрейт : 8608 Кбит/сек
    Ширина : 1920 пикселей
    Высота : 814 пикселей
    Соотношение сторон : 2,35:1
    Режим частоты кадров : Постоянный
    Частота кадров : 23,976 кадра/сек
    Цветовое пространство : YUV
    Субдискретизация насыщенности : 4:2:0
    Битовая глубина : 8 бит
    Тип развёртки : Прогрессивная
    Бит/(Пиксели*Кадры) : 0.230
    Размер потока : 6,70 Гбайт (73%)
    Заголовок : BDRip -- STarankov
    Библиотека кодирования : x264 core 138 r2358 9e941d1
    Залил: msltel
    Размер скачиваемого торрента: 11.04 GB (11852633128 Bytes)


    Меркурий в опасности / Mercury Rising (1998) BDRip 1080p by msltel | D, P, P2, A, L1 скачать через торрент бесплатно
    загрузка...
    Рейтинг →
     (голосов: 1, оценка 4/5, голосовать можно 1 раз )

    Другие торренты по теме:



      Комментарии (0):

      Информация

      Информация

        Посетители, находящиеся в группе Гости, не могут оставлять комментарии в данной новости.

        ↓ Меню



        ↓ Опрос

        А Вы добавили сайт в закладки?
        Да
        Не


        Top 10 за месяц (Фильмы)