.
Авторизация | Регистрация
Хочешь лучшие торренты? Добавь свой email!
Добавить
» » ЗащитнеГ / Defendor (2009) BDRip 1080p by msltel | P, P2, A, L1 скачать через торрент бесплатно




    ЗащитнеГ / Defendor (2009) BDRip 1080p by msltel | P, P2, A, L1 скачать через торрент бесплатно

    Опубликовал: Админ | Дата: 27-02-2015, 11:10 | Просмотров: 225



    Русское название: ЗащитнеГ
    Русское название в мировом прокате: Defendor
    Создали в: 2009
    Категория жанра: Драма, комедия, криминал
    Снималось в: США, Канада, Великобритания, BUCK Productions, Darius Films Inc., Insight Film Releasing, Ontario Media Development Corporation (OMDC)
    Главный режиссер: Питер Стеббингс
    Актеры: Вуди Харрельсон, Элиас Котеас, Майкл Келли, Сандра О, Кэт Деннингс, Кларк Джонсон, Лиза Рэй, Алан С. Петерсон, Кристин Бут, Шарлотта Салливан

    Сюжет фильма: Простой парень Артур Поппингтон решает, что он супергерой-Защитник, и каждую ночь, напялив тугие лосины, отправляется на улицы города в поисках своего главного врага Капитана Индастри - наркодилера, которого Артур ошибочно винит в смерти матери. Однако вместо Индастри герой встречает молодую проститутку и вместе с ней, а также при моральной поддержке своего лечащего психиатра, доказывает, что каждый способен сделать мир лучше.

    Качество фильма: BDRip 1080p
    Размер скачиваемого торрента: 10.31 ГБ
    Время просмотра: 01:41:27

    Информация о видео: MPEG-4 AVC, 9302 Kбит/с, 1920x804
    Информация о звуке 1: русский, 48 kHz, DTS, 6 ch, 1510 kbps avg, Профессиональный многоголосый, ВОЛЬГА
    Информация о звуке 2: русский, 48 kHz, AC3, 6 ch, 448 kbps avg, Профессиональный двухголосый
    Информация о звуке 3: русский, 48 kHz, AC3, 6 ch, 448 kbps avg, Авторский, Михаил Чадов (с ненормативной лексикой)
    Информация о звуке 4: русский, 48 kHz, AC3, 6 ch, 448 kbps avg, Любительскийский, zamez
    Субтитры: русские (forsed)

    Внешние файлы
    Информация о звуке: русский, 48 kHz, AC3, 6 ch, 448 kbps avg, Профессиональный многоголосый, ВОЛЬГА
    Информация о звуке: английский, 48 kHz, DTS, 6 ch, 1509 kbps avg, Оригинал
    Информация о звуке: английский, 48 kHz, AC3, 2 ch, 192 kbps avg, комментарий
    Субтитры: русские
    Субтитры: русские (Евгений Мотыгин)
    Субтитры: английские (для слабослышащих)

    Имеются неименованные главы/чаптеры.

    Исходник: homih1985 (Кинозал)

    Сравнение с исходником



    MediaInfo Лог х264
    Общее
    Полное имя : D:VideoZashitneG.2009.x264.BDRip.1080pZashitneG.2009.Commentary.eng.ac3
    Формат : AC-3
    Формат/Информация : Audio Coding 3
    Размер файла : 139 Мбайт
    Продолжительность : 1 ч. 41 м.
    Режим общего битрейта : Постоянный
    Общий поток : 192 Кбит/сек

    Аудио
    Формат : AC-3
    Формат/Информация : Audio Coding 3
    Профиль формата : Dolby Digital
    Расширение режима : CM (complete main)
    Параметр Endianness формата : Big
    Продолжительность : 1 ч. 41 м.
    Вид битрейта : Постоянный
    Битрейт : 192 Кбит/сек
    Каналы : 2 канала
    Расположение каналов : Front: L R
    Частота : 48,0 КГц
    Битовая глубина : 16 бит
    Метод сжатия : С потерями
    Размер потока : 139 Мбайт (100%)

    Общее
    Полное имя : D:VideoZashitneG.2009.x264.BDRip.1080pZashitneG.2009.eng.SDH.srt
    Формат : SubRip
    Размер файла : 89,5 Кбайт

    Текст
    Формат : SubRip
    Метод сжатия : Без потерь

    Общее
    Полное имя : D:VideoZashitneG.2009.x264.BDRip.1080pZashitneG.2009.MVO.rus.ВОЛЬГА.ac3
    Формат : AC-3
    Формат/Информация : Audio Coding 3
    Размер файла : 325 Мбайт
    Продолжительность : 1 ч. 41 м.
    Режим общего битрейта : Постоянный
    Общий поток : 448 Кбит/сек

    Аудио
    Формат : AC-3
    Формат/Информация : Audio Coding 3
    Расширение режима : CM (complete main)
    Параметр Endianness формата : Big
    Продолжительность : 1 ч. 41 м.
    Вид битрейта : Постоянный
    Битрейт : 448 Кбит/сек
    Каналы : 6 каналов
    Расположение каналов : Front: L C R, Side: L R, LFE
    Частота : 48,0 КГц
    Битовая глубина : 16 бит
    Метод сжатия : С потерями
    Размер потока : 325 Мбайт (100%)

    Общее
    Полное имя : D:VideoZashitneG.2009.x264.BDRip.1080pZashitneG.2009.Original.eng.dts
    Формат : DTS
    Формат/Информация : Digital Theater Systems
    Размер файла : 1,07 Гбайт
    Продолжительность : 1 ч. 41 м.
    Режим общего битрейта : Постоянный
    Общий поток : 1509 Кбит/сек

    Аудио
    Формат : DTS
    Формат/Информация : Digital Theater Systems
    Режим : 16
    Параметр Endianness формата : Big
    Продолжительность : 1 ч. 41 м.
    Вид битрейта : Постоянный
    Битрейт : 1509 Кбит/сек
    Каналы : 6 каналов
    Расположение каналов : Front: L C R, Side: L R, LFE
    Частота : 48,0 КГц
    Битовая глубина : 16 бит
    Метод сжатия : С потерями
    Размер потока : 1,07 Гбайт

    Общее
    Полное имя : D:VideoZashitneG.2009.x264.BDRip.1080pZashitneG.2009.rus.srt
    Формат : SubRip
    Размер файла : 91,4 Кбайт

    Текст
    Формат : SubRip
    Метод сжатия : Без потерь

    Общее
    Полное имя : D:VideoZashitneG.2009.x264.BDRip.1080pZashitneG.2009.rus.Е.Мотыгин.srt
    Формат : SubRip
    Размер файла : 90,0 Кбайт

    Текст
    Формат : SubRip
    Метод сжатия : Без потерь

    Общее
    Уникальный идентификатор : 172480232727596207623224760123502149904 (0x81C27C085B05CD6898F1185344C0C110)
    Полное имя : D:VideoZashitneG.2009.x264.BDRip.1080pZashitneG.2009.x264.BDRip.1080p.mkv
    Формат : Matroska
    Версия формата : Version 4 / Version 2
    Размер файла : 8,79 Гбайт
    Продолжительность : 1 ч. 41 м.
    Общий поток : 12,4 Мбит/сек
    Дата кодирования : UTC 2014-03-12 02:47:13
    Программа кодирования : mkvmerge v6.7.0 (;Back to the Ground;) 64bit built on Jan 8 2014 15:10:52
    Библиотека кодирования : libebml v1.3.0 libmatroska v1.4.1

    Видео
    Идентификатор : 1
    Формат : AVC
    Формат/Информация : Advanced Video Codec
    Профиль формата : High@L4.1
    Параметр CABAC формата : Да
    Параметр ReFrames формата : 4 кадра
    Идентификатор кодека : V_MPEG4/ISO/AVC
    Продолжительность : 1 ч. 41 м.
    Битрейт : 9302 Кбит/сек
    Ширина : 1920 пикселей
    Высота : 804 пикселя
    Соотношение сторон : 2,40:1
    Режим частоты кадров : Постоянный
    Частота кадров : 23,976 кадра/сек
    Цветовое пространство : YUV
    Субдискретизация насыщенности : 4:2:0
    Битовая глубина : 8 бит
    Тип развёртки : Прогрессивная
    Бит/(Пиксели*Кадры) : 0.251
    Размер потока : 6,59 Гбайт (75%)
    Заголовок : BDRip -- STarankov
    Библиотека кодирования : x264 core 138 r2358 9e941d1
    Залил: msltel
    Размер скачиваемого торрента: 10.31 GB (11072679582 Bytes)


    ЗащитнеГ / Defendor (2009) BDRip 1080p by msltel | P, P2, A, L1 скачать через торрент бесплатно
    загрузка...
    Рейтинг →
     (голосов: 1, оценка 5/5, голосовать можно 1 раз )

    Другие торренты по теме:

  • ЗащитнеГ / Defendor (2009) BDRip-AVC | iPad
  • ЗащитнеГ / Defendor (2009) BDRip by msltel | P, P2, A, L1 скачать через торрент бесплатно
  • ЗащитнеГ / Defendor (2009) BDRip 720p by msltel | P, P2, A, L1


    • Комментарии (0):

      Информация

      Информация

        Посетители, находящиеся в группе Гости, не могут оставлять комментарии в данной новости.

        ↓ Меню



        ↓ Опрос

        А Вы добавили сайт в закладки?
        Да
        Не


        Top 10 за месяц (Фильмы)