.
Авторизация | Регистрация
» » Час призраков / 3 A.M. (2012) BDRip 720p от CINEMANIA | НТВ , L1 скачать через торрент бесплатно




    Час призраков / 3 A.M. (2012) BDRip 720p от CINEMANIA | НТВ , L1 скачать через торрент бесплатно

    Опубликовал: Админ | Дата: 27-02-2015, 11:10 | Просмотров: 214



    Детально о кино
    Русское название: Час призраков
    Русское название в мировом прокате: 3 A.M.
    Создали в: 2012
    Категория жанра: ужасы
    Главный режиссёр: Исара Нади
    Актеры: Апиня Сакуляроенсак, Фокус Джиракул, Шакрит Ямнарм, Рэй МакДональд, Тони Раккаен, Питер Найт, Васана Чалакорн

    Сюжет фильма:
    Люди боятся ночи, даже не зная, что в ней по-настоящему страшного. Действительно жуткая пора – 3 часа ночи, единственное время в сутках, когда границы между реальным миром и миром призраков становятся зыбкими, а порой – полностью стираются. В три часа ночи героев ждут три страшные истории о призраках, которые не могли оставить в покое живых и преследовали их до самого конца. В первой истории речь идет о молодой паре, готовившейся к свадьбе и построившей для себя дом.

    До того, как молодые люди смогли стать семьей и начать счастливую жизнь в новом доме, произошел несчастный случай, унесший жизнь невесты. Родные и близкие сомневались, стоит ли жениху жить в этом доме теперь, но он был непреклонен. И вместе с ним в доме осталась его невеста. Вторая и третья истории под стать первой. Откуда берутся волосы в магазине париков? Кто ходит по дому в тишине и темноте ночи? И что произойдет, если призрак решит любой ценой забрать у живых то, что по праву считает своим?



    Снималось в: Таиланд
    Время просмотра: 01:34:35
    Тип перевода:
    Профессиональное (двухголосое) Нтв
    Любительское (одноголосое) ХиХиДок

    Файл
    Тип видео: MKV
    Качество фильма: BDRip 720p EbP
    Информация о видео: 4473 kb/s, 1280x720
    Информация о звуке:
    Russian: Нтв / ХиХиДок: AC3, 192 kb/s (2 ch)
    Thai: AC3, 640 kb/s (6 ch)
    Субтитры: English
    Дополнительно: Сохранены оригинальные чаптеры как на Blu-Ray
    Размер скачиваемого торрента: 3.71 Gb
    Скачать: Сэмпл

    Релиз группы:




    NFO
    Общее
    3.A.M.2012.Blu.Ray.720p.CINEMANIA.mkv
    Формат : Matroska
    Версия формата : Version 4 / Version 2
    Размер файла : 3,71 Гбайт
    Продолжительность : 1 ч. 34 м.
    Общий поток : 5608 Кбит/сек
    Название фильма : Release Group CINEMANIA
    Дата кодирования : UTC 2014-03-11 23:51:43
    Программа кодирования : mkvmerge v6.8.0 (;Theme for Great Cities;) 64bit built on Mar 2 2014 21:34:26
    Библиотека кодирования : libebml v1.3.0 libmatroska v1.4.1

    Видео
    Идентификатор : 1
    Формат : AVC
    Формат/Информация : Advanced Video Codec
    Профиль формата : High@L4.1
    Параметр CABAC формата : Да
    Параметр ReFrames формата : 9 кадров
    Идентификатор кодека : V_MPEG4/ISO/AVC
    Продолжительность : 1 ч. 34 м.
    Битрейт : 4473 Кбит/сек
    Ширина : 1280 пикселей
    Высота : 720 пикселей
    Соотношение сторон : 16:9
    Режим частоты кадров : Постоянный
    Частота кадров : 23,976 кадра/сек
    Цветовое пространство : YUV
    Субдискретизация насыщенности : 4:2:0
    Битовая глубина : 8 бит
    Тип развёртки : Прогрессивная
    Бит/(Пиксели*Кадры) : 0.202
    Размер потока : 2,96 Гбайт (80%)
    Заголовок : Release Group CINEMANIA
    Default : Да
    Forced : Нет

    Аудио #1
    Идентификатор : 2
    Формат : AC-3
    Формат/Информация : Audio Coding 3
    Расширение режима : CM (complete main)
    Параметр Endianness формата : Big
    Идентификатор кодека : A_AC3
    Продолжительность : 1 ч. 34 м.
    Вид битрейта : Постоянный
    Битрейт : 192 Кбит/сек
    Каналы : 2 канала
    Расположение каналов : Front: L R
    Частота : 48,0 КГц
    Битовая глубина : 16 бит
    Метод сжатия : С потерями
    Размер потока : 130 Мбайт (3%)
    Заголовок : Нтв
    Язык : Russian
    Default : Да
    Forced : Да

    Аудио #2
    Идентификатор : 3
    Формат : AC-3
    Формат/Информация : Audio Coding 3
    Расширение режима : CM (complete main)
    Параметр Endianness формата : Big
    Идентификатор кодека : A_AC3
    Продолжительность : 1 ч. 34 м.
    Вид битрейта : Постоянный
    Битрейт : 192 Кбит/сек
    Каналы : 2 канала
    Расположение каналов : Front: L R
    Частота : 48,0 КГц
    Битовая глубина : 16 бит
    Метод сжатия : С потерями
    Размер потока : 130 Мбайт (3%)
    Заголовок : ХиХиДок
    Язык : Russian
    Default : Нет
    Forced : Нет

    Аудио #3
    Идентификатор : 4
    Формат : AC-3
    Формат/Информация : Audio Coding 3
    Расширение режима : CM (complete main)
    Параметр Endianness формата : Big
    Идентификатор кодека : A_AC3
    Продолжительность : 1 ч. 34 м.
    Вид битрейта : Постоянный
    Битрейт : 640 Кбит/сек
    Каналы : 6 каналов
    Расположение каналов : Front: L C R, Side: L R, LFE
    Частота : 48,0 КГц
    Битовая глубина : 16 бит
    Метод сжатия : С потерями
    Размер потока : 433 Мбайт (11%)
    Язык : Thai
    Default : Нет
    Forced : Нет

    Текст
    Идентификатор : 5
    Формат : UTF-8
    Идентификатор кодека : S_TEXT/UTF8
    Идентификатор кодека/Информация : UTF-8 Plain Text
    Язык : English
    Default : Нет
    Forced : Нет

    Меню
    00:00:00.000 : en:00:00:00.000
    00:10:25.625 : en:00:10:25.625
    00:16:03.838 : en:00:16:03.838
    00:21:29.163 : en:00:21:29.163
    00:32:18.353 : en:00:32:18.353
    00:37:54.355 : en:00:37:54.355
    00:47:34.894 : en:00:47:34.894
    00:54:15.752 : en:00:54:15.752
    00:59:57.052 : en:00:59:57.052
    01:06:29.694 : en:01:06:29.694
    01:18:38.881 : en:01:18:38.881
    01:28:36.686 : en:01:28:36.686

    Залил: DGEKIGAN
    Размер скачиваемого торрента: 3.71 GB (3978710081 Bytes)

    Час призраков / 3 A.M. (2012) BDRip 720p от CINEMANIA | НТВ , L1 скачать через торрент бесплатно
    загрузка...
    Рейтинг →
     (голосов: 1, оценка 3/5, голосовать можно 1 раз )

    Другие торренты по теме:



      Комментарии (0):

      Информация

      Информация

        Посетители, находящиеся в группе Гости, не могут оставлять комментарии в данной новости.

        ↓ Меню



        ↓ Опрос

        А Вы добавили сайт в закладки?
        Да
        Не


        Top 10 за неделю (Фильмы)