.
Авторизация | Регистрация
Хочешь лучшие торренты? Добавь свой email!
Добавить
» » Два с половиной человека / Two and a Half Men (2013) HDTVRip | Jetvis Studio скачать через торрент бесплатно




    Два с половиной человека / Two and a Half Men (2013) HDTVRip | Jetvis Studio скачать через торрент бесплатно

    Опубликовал: Админ | Дата: 27-02-2015, 11:10 | Просмотров: 224

    Два с половиной человека / Two and a Half Men




    Создали в: 2013-2014
    Снималось в: США
    Категория жанра: комедия
    Время просмотра: 00:22:00
    Перевод текста: Двухголосый, закадровый - Jetvis Studio
    Субтитры: нет

    Главный режиссёр: Ли Аронсон, Чак Лорри
    Актеры: Джон Крайер, Эштон Катчер, Эмбер Тэмблин, Кончата Феррелл, Холланд Тейлор, Марин Хинкль, Мелани Лински, Дженнифер Бини Тейлор, Райан Стайлз, Эйприл Боулби и др.

    Релиз:
    Перевод текста: notabenoid, правка IronFox
    Роли озвучивали: Иван Назаров, Анастасия Домнина.

    Сюжет: Спустя восемь лет, после того как в особняке на побережье Беверли Хиллз сумбурно поселился свежеразведенный бездомный Алан Харпер, не стало его брата - хозяина особняка, местного бабника и знатного алкоголика Чарли. Но ушли ли с ним приключения семейства Харперов? Вряд ли, т.к. новым хозяином шикарного жилища становится очень незаурядная личность - некий Уолден Шмидт.

    Внимание! Раздача ведется путем добавления новых серий

    Внимание! Раздача ведётся путём добавления новых серий; при каждом добавлении создётся новый торрент. Чтобы начать докачку новой серии, пользователям необходимо сделать следующее: (1) остановить скачивание, (2) удалить старый торрент у себя из клиента (старые серии удалять не надо), (3) скачать новый торрент и запустить его у себя в клиенте вместо старого, при этом указать клиенту путь в старую папку куда и должно происходить скачивание новых серий.
    Ваш клиент при этом должен произвести хеширование (проверку) старой папки (если не производит сам - помогите ему сделать это), и будет докачивать только те серии которых у вас ещё нет. Старые серии при этом не удаляются, а продолжают раздаваться!
    Eсли вы уже удалили старые серии, то предотвратить повторную закачку старых серий можно, отжав галочку в соответсвующих местах при запуске нового торрента. По возможности, желательно не удалять старые серии как можно дольше чтобы релизёр не столько продолжал раздавать старые серии, а смог сконцентрироваться на новых.

    Сэмпл

    http://multi-up.com/957615
    Качество фильма: HDTVRip
    Тип видео: AVI
    Информация о видео: XviD, 720x400 (16:9), ~1421 kbps, 23.976 fps, 0.206 bit/pixel
    Информация о звуке RUS: MP3, 48 kHz, 128 kbps, 2 ch
    Информация о звуке ENG: MP3, 48 kHz, 128 kbps, 2 ch
    Подробные технические данные

    Общее
    Полное имя : C:ТоррентTwo.and.a.Half.Men.S11.Jetvis.Studio.400pTwo.and.a.Half.Men.S11E15.Jetvis.Studio.avi
    Формат : AVI
    Формат/Информация : Audio Video Interleave
    Размер файла : 262 Мбайт
    Продолжительность : 21 м.
    Общий поток : 1700 Кбит/сек

    Видео
    Идентификатор : 0
    Формат : MPEG-4 Visual
    Профиль формата : Advanced Simple@L5
    Параметр BVOP формата : 2
    Параметр QPel формата : Нет
    Параметр GMC формата : Без точки перехода
    Параметр матрицы формата : Default (MPEG)
    Идентификатор кодека : XVID
    Идентификатор кодека/Подсказка : XviD
    Продолжительность : 21 м.
    Битрейт : 1421 Кбит/сек
    Ширина : 720 пикселей
    Высота : 400 пикселей
    Соотношение сторон : 16:9
    Частота кадров : 23,976 кадра/сек
    Цветовое пространство : YUV
    Субдискретизация насыщенности : 4:2:0
    Битовая глубина : 8 бит
    Тип развёртки : Прогрессивная
    Метод сжатия : С потерями
    Бит/(Пиксели*Кадры) : 0.206
    Размер потока : 219 Мбайт (84%)
    Библиотека кодирования : XviD 1.2.1 (UTC 2008-12-04)

    Аудио #1
    Идентификатор : 1
    Формат : MPEG Audio
    Версия формата : Version 1
    Профиль формата : Layer 3
    Идентификатор кодека : 55
    Идентификатор кодека/Подсказка : MP3
    Продолжительность : 21 м.
    Вид битрейта : Постоянный
    Битрейт : 128 Кбит/сек
    Каналы : 2 канала
    Частота : 48,0 КГц
    Метод сжатия : С потерями
    Размер потока : 19,7 Мбайт (8%)
    Выравнивание : Соединение по промежуткам
    Продолжительность промежутка : 24 мс. (0,58 видеокадр)

    Аудио #2
    Идентификатор : 2
    Формат : MPEG Audio
    Версия формата : Version 1
    Профиль формата : Layer 3
    Идентификатор кодека : 55
    Идентификатор кодека/Подсказка : MP3
    Продолжительность : 21 м.
    Вид битрейта : Постоянный
    Битрейт : 128 Кбит/сек
    Каналы : 2 канала
    Частота : 48,0 КГц
    Метод сжатия : С потерями
    Размер потока : 19,7 Мбайт (8%)
    Выравнивание : Соединение по промежуткам
    Продолжительность промежутка : 24 мс. (0,58 видеокадр)

    Скриншоты для ознакомления



    Размер скачиваемого торрента: 524.16 MB (549626608 Bytes)

    Два с половиной человека / Two and a Half Men (2013) HDTVRip | Jetvis Studio скачать через торрент бесплатно
    загрузка...
    Рейтинг →
     (голосов: 1, оценка 3/5, голосовать можно 1 раз )

    Другие торренты по теме:

  • Два с половиной человека / Two and a Half Men (2012) WEB-DL 1080p | Jimmy J
  • Два с половиной человека / Two and a Half Men (2013) WEB-DL скачать через торрент бесплатно
  • Два с половиной человека / Two and a Half Men (2013) WEB-DL 720p | Sub скачать через торрент бесплатно
  • Два с половиной человека / Two and a Half Men (2013) WEB-DLRip - AVC | Jimmy J
  • Два с половиной человека / Two and a Half Men (2013) WEB-DL 720p | Jimmy J
  • Два с половиной человека / Two and a Half Men (2003-2013) WEB-DLRip
  • Два с половиной человека / Two and a Half Men (2013) WEB-DL | T.Rec Pro скачать через торрент бесплатно
  • Два с половиной человека / Two and a Half Men (2013) WEB-DL 720p | T.Rec Pro скачать через торрент бесплатно


    • Комментарии (0):

      Информация

      Информация

        Посетители, находящиеся в группе Гости, не могут оставлять комментарии в данной новости.

        ↓ Меню



        ↓ Опрос

        А Вы добавили сайт в закладки?
        Да
        Не


        Top 10 за месяц (Фильмы)