.
Авторизация | Регистрация
» » Достучаться до небес / Knockin on Heavens Door (1997) BDRip-AVC | iPhone | D торрент скачать бесплатно




    Достучаться до небес / Knockin on Heavens Door (1997) BDRip-AVC | iPhone | D торрент скачать бесплатно

    Опубликовал: Админ | Дата: 27-02-2015, 11:10 | Просмотров: 257



    Достучаться до небес / Knockin; on Heaven;s Door (1997) BDRip-AVC | iPhone | D

    Русское название: Достучаться до небес
    Русское название в мировом прокате: Knockin; on Heaven;s Door
    Создали в: 1997
    Категория жанра: драма, комедия, криминал
    Главный режиссер: Томас Ян
    Актеры: Тиль Швайгер, Ян Йозеф Лиферс, Тьерри Ван Вервеке, Мориц Бляйбтрой, Хуб Стапель, Леонард Лансинк, Ральф Херфорт, Корнелия Фробесс, Рутгер Хауэр, Уилли Томчик

    Сюжет фильма:
    Судьба сводит героев картины в больнице, где врачи выносят им смертный приговор. Счет времени их жизней идет на часы. Дальнейшие события в фильме разворачиваются в стремительном темпе. Украв машину с миллионом немецких марок в багажнике, они сбегают из больницы.
    Их преследуют наемные убийцы, они становятся грабителями поневоле, за ними гонится полиция, они попадают в бордель. Но тем не менее продолжают мчаться вперед, навстречу своей судьбе.



    Снималось в: Германия
    Киностудия: Buena Vista International Film Production (Germany), Mr. Brown Entertainment
    Время просмотра: 01:28:56
    Перевод текста: Русский дублированный

    Файл
    Кодек для видео: H.264
    Качество фильма: BDRip-AVC 480p
    Информация о видео: 640x362@852x362 (2.35:1) at 23.976 fps, AVC at 1700 kbps
    Информация о звуке:
    1: АAС 2.0 160 kbps - Русский дублированный
    2: АAС 2.0 140 kbps - Английский
    Субтитры: Русские (Tivionika), Немецкие, Английские

    MI

    General
    Complete name : C:CREATE?x264modoutKnockin.on.Heavens.Door.1997 (SD).m4v
    Format : MPEG-4
    Codec ID : M4V
    File size : 1.25 GiB
    Duration : 1h 28mn
    Overall bit rate mode : Variable
    Overall bit rate : 2 009 Kbps
    Movie name : Достучаться до небес
    Performer : Thomas Jahn
    Genre : Drama
    Recorded date : UTC 1997-02-20 08:00:00
    Encoded date : UTC 2014-03-13 18:16:27
    Tagged date : UTC 2014-03-13 18:24:06
    Copyright : Buena Vista International Film Production (Germany), Mr. Brown Entertainment
    Cover : Yes
    Comment : Быстрый автомобиль, миллион марок в багажнике, и всего одна неделя жить
    iTunEXTC : mpaa|R|400|

    sonm : Knockin; On Heaven;s Door
    desc : Судьба сводит героев картины в больнице, где врачи выносят им смертный приговор. Счет времени их жизней идет на часы. Дальнейшие события в фильме разворачиваются в стремительном темпе. Украв машину с миллионом немецких марок в багажнике, они сбегают
    ldes : Судьба сводит героев картины в больнице, где врачи выносят им смертный приговор. Счет времени их жизней идет на часы. Дальнейшие события в фильме разворачиваются в стремительном темпе. Украв машину с миллионом немецких марок в багажнике, они сбегают из больницы. / Их преследуют наемные убийцы, они становятся грабителями поневоле, за ними гонится полиция, они попадают в бордель. Но тем не менее продолжают мчаться вперед, навстречу своей судьбе.
    hdvd : 0
    stik : 9
    cnID : 323893575
    xid : Apple:vendor_id:1997-32898

    Video
    ID : 1
    Format : AVC
    Format/Info : Advanced Video Codec
    Format profile : Baseline@L3.0
    Format settings, CABAC : No
    Format settings, ReFrames : 2 frames
    Codec ID : avc1
    Codec ID/Info : Advanced Video Coding
    Duration : 1h 28mn
    Bit rate : 1 700 Kbps
    Maximum bit rate : 7 811 Kbps
    Width : 640 pixels
    Height : 362 pixels
    Display aspect ratio : 2.35:1
    Frame rate mode : Constant
    Frame rate : 23.976 fps
    Color space : YUV
    Chroma subsampling : 4:2:0
    Bit depth : 8 bits
    Scan type : Progressive
    Bits/(Pixel*Frame) : 0.306
    Stream size : 1.06 GiB (85%)
    Title : Knockin on Heavens Door _1997_
    Writing library : x264 core 140 r2377 40 929f149 tMod 8-bit@4:2:0 X86_64
    Encoding settings : cabac=0 / ref=2 / deblock=1:-2:-2 / analyse=0x1:0x131 / me=umh / subme=7 / psy=1 / fade_compensate=1.00 / psy_rd=1.00:0.10 / mixed_ref=1 / me_range=32 / chroma_me=1 / trellis=2 / 8x8dct=0 / cqm=0 / deadzone=21,11 / fast_pskip=0 / chroma_qp_offset=-3 / threads=12 / lookahead_threads=2 / sliced_threads=0 / nr=0 / decimate=0 / interlaced=0 / bluray_compat=0 / constrained_intra=0 / fgo=0 / bframes=0 / weightp=0 / keyint=250 / keyint_min=23 / scenecut=40 / intra_refresh=0 / rc_lookahead=80 / rc=2pass / mbtree=1 / bitrate=1700 / ratetol=1.0 / qcomp=0.60 / qpmin=0:0:0 / qpmax=69:69:69 / qpstep=4 / cplxblur=20.0 / qblur=0.5 / vbv_maxrate=5000 / vbv_bufsize=5000 / nal_hrd=none / filler=0 / ip_ratio=1.35 / aq=4:0.90 / aq-sensitivity=10.00 / aq-factor=1.00:1.00:1.00 / aq2=0 / aq3=0
    Language : English
    Encoded date : UTC 2014-03-13 18:16:27
    Tagged date : UTC 2014-03-13 18:16:56
    Matrix coefficients : BT.709

    Audio #1
    ID : 2
    Format : AAC
    Format/Info : Advanced Audio Codec
    Format profile : LC
    Codec ID : 40
    Duration : 1h 28mn
    Bit rate mode : Variable
    Bit rate : 162 Kbps
    Maximum bit rate : 182 Kbps
    Channel(s) : 2 channels
    Channel positions : Front: L R
    Sampling rate : 48.0 KHz
    Compression mode : Lossy
    Stream size : 103 MiB (8%)
    Title : Dub
    Language : Russian
    Encoded date : UTC 2014-03-13 18:09:44
    Tagged date : UTC 2014-03-13 18:16:56

    Audio #2
    ID : 3
    Format : AAC
    Format/Info : Advanced Audio Codec
    Format profile : LC
    Codec ID : 40
    Duration : 1h 28mn
    Bit rate mode : Variable
    Bit rate : 138 Kbps
    Maximum bit rate : 179 Kbps
    Channel(s) : 2 channels
    Channel positions : Front: L R
    Sampling rate : 48.0 KHz
    Compression mode : Lossy
    Stream size : 87.7 MiB (7%)
    Title : English
    Language : English
    Encoded date : UTC 2014-03-13 18:14:28
    Tagged date : UTC 2014-03-13 18:16:56

    Text #1
    ID : 4
    Format : Timed Text
    Muxing mode : sbtl
    Codec ID : tx3g
    Duration : 1h 28mn
    Bit rate mode : Variable
    Bit rate : 69 bps
    Stream size : 45.1 KiB (0%)
    Title : Subtitle Russian Tivionika
    Language : Russian
    Encoded date : UTC 2014-03-13 18:16:56
    Tagged date : UTC 2014-03-13 18:16:56

    Text #2
    ID : 5
    Format : Timed Text
    Muxing mode : sbtl
    Codec ID : tx3g
    Duration : 1h 28mn
    Bit rate mode : Variable
    Bit rate : 51 bps
    Stream size : 33.1 KiB (0%)
    Title : Subtitle German
    Language : German
    Encoded date : UTC 2014-03-13 18:16:56
    Tagged date : UTC 2014-03-13 18:16:56

    Text #3
    ID : 6
    Format : Timed Text
    Muxing mode : sbtl
    Codec ID : tx3g
    Duration : 1h 28mn
    Bit rate mode : Variable
    Bit rate : 40 bps
    Stream size : 26.1 KiB (0%)
    Title : Subtitle English
    Language : English
    Encoded date : UTC 2014-03-13 18:16:56
    Tagged date : UTC 2014-03-13 18:16:56
    iTunes tags

    Sort Name: Knockin; On Heaven;s Door
    XID: Apple:vendor_id:1997-32898
    Content ID: 323893575
    Copyright: Buena Vista International Film Production (Germany), Mr. Brown Entertainment
    ScreenWriters: Томас Ян, Тиль Швайгер
    Producers: Андре Хеннике, Тиль Швайгер, Томас Циклер
    Director: Томас Ян
    Cast: Тиль Швайгер, Ян Йозеф Лиферс, Тьерри Ван Вервеке, Мориц Бляйбтрой, Хуб Стапель, Леонард Лансинк, Ральф Херфорт, Корнелия Фробесс, Рутгер Хауэр, Уилли Томчик
    Rating: R
    Long Deion: Судьба сводит героев картины в больнице, где врачи выносят им смертный приговор. Счет времени их жизней идет на часы. Дальнейшие события в фильме разворачиваются в стремительном темпе. Украв машину с миллионом немецких марок в багажнике, они сбегают из больницы.
    Их преследуют наемные убийцы, они становятся грабителями поневоле, за ними гонится полиция, они попадают в бордель. Но тем не менее продолжают мчаться вперед, навстречу своей судьбе.
    Deion: Судьба сводит героев картины в больнице, где врачи выносят им смертный приговор. Счет времени их жизней идет на часы. Дальнейшие события в фильме разворачиваются в стремительном темпе. Украв машину с миллионом немецких марок в багажнике, они сбегают
    Release Date: 1997-02-20T08:00:00Z
    Genre: Drama
    Artist: Thomas Jahn
    Name: Достучаться до небес
    Comments: Быстрый автомобиль, миллион марок в багажнике, и всего одна неделя жить
    x264

    x264 info: frame I:1972 Avg QP:20.33 size: 27460
    x264 info: frame P:125971 Avg QP:22.40 size: 8571
    x264 info: mb I I16..4: 28.3% 0.0% 71.7%
    x264 info: mb P I16..4: 1.1% 0.0% 1.7% P16..4: 52.4% 20.8% 10.0% 1.5% 0.6% skip:12.1%
    x264 info: coded y,uvDC,uvAC intra: 68.7% 70.8% 37.7% inter: 48.7% 43.3% 15.0%
    x264 info: i16 v,h,dc,p: 50% 16% 9% 26%
    x264 info: i4 v,h,dc,ddl,ddr,vr,hd,vl,hu: 30% 13% 15% 6% 7% 9% 6% 8% 5%
    x264 info: i8c dc,h,v,p: 60% 14% 21% 5%
    x264 info: ref P L0: 74.7% 25.3%
    x264 info: kb/s:1699.90




    Залил: gekka
    Размер скачиваемого торрента: 1.25 GB (1339996306 Bytes)

    Достучаться до небес / Knockin on Heavens Door (1997) BDRip-AVC | iPhone | D торрент скачать бесплатно
    загрузка...
    Рейтинг →
     (голосов: 1, оценка 4/5, голосовать можно 1 раз )

    Другие торренты по теме:

  • Достучаться до небес / Knockin on Heavens Door (1997) HDRip-AVC | D торрент скачать бесплатно
  • Достучаться до небес / Knockin on Heavens Door (1997) BDRip 1080p торрент скачать бесплатно
  • Достучаться до небес / Knockin on Heavens Doors (1997) BDRip-AVC от ExKinoRay | D, P2, A торрент скачать бесплатно
  • Достучаться до небес / Knockin On Heavens Door (1997) BDRip 1080p от denis 100 | D, P торрент скачать бесплатно
  • Достучаться до небес / Knockin' on Heaven's Door (1997) скачать торрент бесплатно


    • Комментарии (0):

      Информация

      Информация

        Посетители, находящиеся в группе Гости, не могут оставлять комментарии в данной новости.

        ↓ Меню



        ↓ Опрос

        А Вы добавили сайт в закладки?
        Да
        Не


        Top 10 за неделю (Фильмы)