.
Авторизация | Регистрация
Хочешь лучшие торренты? Добавь свой email!
Добавить
» » Двойная жизнь Камиллы / Camille redouble (2012) HDRip от New-Team | лицензия торрент скачать бесплатно




    Двойная жизнь Камиллы / Camille redouble (2012) HDRip от New-Team | лицензия торрент скачать бесплатно

    Опубликовал: Админ | Дата: 27-02-2015, 11:10 | Просмотров: 235



    Снималось в: Франция / Canal fr, Centre National de la Cin?matographie (CNC), Cin?@...

    Категория жанра: драма, комедия
    Создали в: 2012
    Время просмотра: 01:55:13
    Перевод текста: Профессиональный (многоголосый закадровый)
    Субтитры подготовлены: нет
    Оригинальная аудиодорожка: нет

    Главный режиссер: Ноэми Львовски / No?mie Lvovsky

    Актеры: Ноэми Львовски, Самир Гесми, Жюдит Шемла, Индия Хэйр, Жюлия Фор, Иоланда Моро, Мишель Вюйермоз, Дени Подалидес, Жан-Пьер Лео, Венсан Лакост...

    Сюжет: В центре фильма Эрик и 16-летняя Камилла. Они страстно влюбляются друг в друга, и в молодом возрасте у них рождается дочь. 25 лет спустя Эрик уходит от Камиллы к молодой женщине. Вечером 31 декабря Камилла внезапно попадает в прошлое. Ей снова 16. Она заново открывает своих родителей, своих друзей, свою молодость и Эрика. Будет ли она избегать его или попробует изменить их жизни? Влюбится ли она в него снова, если знает, что их любви через 25 лет придёт конец?



    Качество фильма: HDRip / BDRip 720p
    Тип видео: AVI

    Информация о видео: 720x384 (1.85:1), 24.000 fps, XviD ~ 1417 kbps avg, 0.214 bit/pixel
    Информация о звуке: 48 kHz, Dolby AC3, 6 ch, 384 kbps, русский

    Раздача от:
    MediaInfo

    Общее
    Полное имя : Dvoynaya.jizn.Kamilly.2012.P.HDRip_New-Team_by_avproh.avi
    Формат : AVI
    Формат/Информация : Audio Video Interleave
    Размер файла : 1,46 Гбайт
    Продолжительность : 1 ч. 55 м.
    Общий поток : 1810 Кбит/сек
    Программа кодирования : VirtualDubModRus 1.5.10.2 (build 2542/release)
    Библиотека кодирования : VirtualDubMod build 2542/release

    Видео
    Идентификатор : 0
    Формат : MPEG-4 Visual
    Профиль формата : Advanced Simple@L5
    Параметр BVOP формата : 1
    Параметр QPel формата : Нет
    Параметр GMC формата : Без точки перехода
    Параметр матрицы формата : Выборочная
    Идентификатор кодека : XVID
    Идентификатор кодека/Подсказка : XviD
    Продолжительность : 1 ч. 55 м.
    Битрейт : 1417 Кбит/сек
    Ширина : 720 пикселей
    Высота : 384 пикселя
    Соотношение сторон : 1,85:1
    Частота кадров : 24,000 кадра/сек
    Цветовое пространство : YUV
    Субдискретизация насыщенности : 4:2:0
    Битовая глубина : 8 бит
    Тип развёртки : Прогрессивная
    Метод сжатия : С потерями
    Бит/(Пиксели*Кадры) : 0.214
    Размер потока : 1,14 Гбайт (78%)
    Библиотека кодирования : XviD 73

    Аудио
    Идентификатор : 1
    Формат : AC-3
    Формат/Информация : Audio Coding 3
    Расширение режима : CM (complete main)
    Параметр Endianness формата : Big
    Идентификатор кодека : 2000
    Продолжительность : 1 ч. 55 м.
    Вид битрейта : Постоянный
    Битрейт : 384 Кбит/сек
    Каналы : 6 каналов
    Расположение каналов : Front: L C R, Side: L R, LFE
    Частота : 48,0 КГц
    Битовая глубина : 16 бит
    Метод сжатия : С потерями
    Размер потока : 316 Мбайт (21%)
    Выравнивание : Разделение по промежуткам
    Продолжительность промежутка : 42 мс. (1,00 видеокадр)
    Время предзагрузки промежутка : 500 мс.

    Скриншоты для ознакомления:



    Залил: avproh
    Размер скачиваемого торрента: 1.46 GB (1564203008 Bytes)

    Двойная жизнь Камиллы / Camille redouble (2012) HDRip от New-Team | лицензия торрент скачать бесплатно
    загрузка...
    Рейтинг →
     (голосов: 1, оценка 3/5, голосовать можно 1 раз )

    Другие торренты по теме:

  • OST - Двойная жизнь Вероники / The Double Life of Veronique (1991) MP3
  • Двойная жизнь (2014) IPTVRip
  • Двойная жизнь (2013) WEB-DL 720p от MediaClub скачать через торрент бесплатно
  • Двойная жизнь (2013) WEB-DL 1080p от MegaPeer скачать через торрент бесплатно
  • Двойная жизнь (2013) WEB-DLRip 720p от MegaPeer скачать через торрент бесплатно
  • Двойная жизнь (2014) WEB-DLRip by simkanetua скачать через торрент бесплатно
  • Двойная жизнь (2014) WEB-DLRip
  • Двойная жизнь Камиллы / Camille redouble (2012) HDRip-AVC от New-Team | P | лицензия скачать через торрент бесплатно


    • Комментарии (0):

      Информация

      Информация

        Посетители, находящиеся в группе Гости, не могут оставлять комментарии в данной новости.

        ↓ Меню



        ↓ Опрос

        А Вы добавили сайт в закладки?
        Да
        Не


        Top 10 за месяц (Фильмы)