.
Авторизация | Регистрация
» » Счастливые годы / Anni felici / Those happy years (2013) BDRip-AVC | L1 торрент скачать бесплатно




    Счастливые годы / Anni felici / Those happy years (2013) BDRip-AVC | L1 торрент скачать бесплатно

    Опубликовал: Админ | Дата: 27-02-2015, 11:10 | Просмотров: 205



    Детально о кино
    Русское название: Счастливые годы
    Русское название в мировом прокате: Anni felici / Those happy years
    Создали в: 2013
    Категория жанра: Драма
    Главный режиссер: Даниэле Лукетти / Daniele Luchetti
    Актеры: Ким Росси Стюарт, Микаела Рамаццотти, Мартина Гедек, Никколо Кальванья, Бенедетта Буччеллато, Анжелика Каваллари, Иван Кастильоне, Сильвия Де Фанти

    Сюжет фильма:
    Мир самовлюбленного художника переворачивается из-за катастрофической выставки и склонности его жены к внебрачным связям...



    Снималось в: Италия, Франция
    Киностудия: Babe Film, Cattleya, Rai Cinema…
    Время просмотра: 01:45:59
    Перевод текста: Любительский (одноголосый, закадровый) (Pashaup)

    Файл
    Кодек для видео: h.264
    Качество фильма: BDRip-AVC
    Информация о видео: AVC, 1024 x 552, ~1822 kbps
    Информация о звуке #1: Русский: AC-3, 6 ch, 448 kbps
    Информация о звуке #2: Итальянский: AC-3, 6 ch, 448 kbps (отдельным файлом)
    Субтитры: Русские от creo140 (внешние (srt) адаптированы к этому релизу)



    Семпл

    Скриншоты для ознакомления
    MI
    Общее
    Уникальный идентификатор : 168348648403719580577546155723716462494 (0x7EA6C532C2870C1E037BA147C20E879E)
    Полное имя : G:Счастливые годы Anni felici Those happy years 2013, BDRip-AVCSchastlivye gody 2013Those.Happy.Years_2013.mkv
    Формат : Matroska
    Версия формата : Version 2
    Размер файла : 1,71 Гбайт
    Продолжительность : 1 ч. 45 м.
    Режим общего битрейта : Переменный
    Общий поток : 2316 Кбит/сек
    Программа кодирования : Lavf51.12.1
    Библиотека кодирования : Lavf51.12.1

    Видео
    Идентификатор : 1
    Формат : AVC
    Формат/Информация : Advanced Video Codec
    Профиль формата : Baseline@L3.1
    Параметр CABAC формата : Нет
    Параметр ReFrames формата : 1 кадр
    Параметр GOP формата : M=1, N=12
    Идентификатор кодека : V_MPEG4/ISO/AVC
    Продолжительность : 1 ч. 45 м.
    Вид битрейта : Переменный
    Битрейт : 1822 Кбит/сек
    Максимальный битрейт : 2790 Кбит/сек
    Ширина : 1024 пикселя
    Высота : 552 пикселя
    Соотношение сторон : 1,85:1
    Режим частоты кадров : Постоянный
    Частота кадров : 24,000 кадра/сек
    Цветовое пространство : YUV
    Субдискретизация насыщенности : 4:2:0
    Битовая глубина : 8 бит
    Тип развёртки : Прогрессивная
    Бит/(Пиксели*Кадры) : 0.134
    Размер потока : 1,35 Гбайт (79%)
    Default : Да
    Forced : Нет

    Аудио
    Идентификатор : 2
    Формат : AC-3
    Формат/Информация : Audio Coding 3
    Расширение режима : CM (complete main)
    Параметр Endianness формата : Big
    Идентификатор кодека : A_AC3
    Продолжительность : 1 ч. 45 м.
    Вид битрейта : Постоянный
    Битрейт : 448 Кбит/сек
    Каналы : 6 каналов
    Расположение каналов : Front: L C R, Side: L R, LFE
    Частота : 48,0 КГц
    Битовая глубина : 16 бит
    Метод сжатия : С потерями
    Размер потока : 340 Мбайт (19%)
    Default : Да
    Forced : Нет

    Текст
    Идентификатор : 3
    Формат : UTF-8
    Идентификатор кодека : S_TEXT/UTF8
    Идентификатор кодека/Информация : UTF-8 Plain Text
    Default : Да
    Forced : Нет

    Размер скачиваемого торрента: 2.05 GB (2197245393 Bytes)

    Счастливые годы / Anni felici / Those happy years (2013) BDRip-AVC | L1 торрент скачать бесплатно
    загрузка...
    Рейтинг →
     (голосов: 1, оценка 3/5, голосовать можно 1 раз )

    Другие торренты по теме:

  • Счастливые годы / Those happy years / Anni felici (2013) BDRip 1080p от CINEMANIA | L1 торрент скачать бесплатно
  • Счастливые годы / Those happy years / Anni felici (2013) BDRip 720p от CINEMANIA | L1 торрент скачать бесплатно
  • Счастливые годы / Those happy years / Anni felici (2013) BDRip торрент скачать бесплатно
  • Счастливые люди: Год в тайге / Happy People: A Year in the Taiga (2010) SATRip торрент скачать бесплатно


    • Комментарии (0):

      Информация

      Информация

        Посетители, находящиеся в группе Гости, не могут оставлять комментарии в данной новости.

        ↓ Меню



        ↓ Опрос

        А Вы добавили сайт в закладки?
        Да
        Не


        Top 10 за неделю (Фильмы)