.
Авторизация | Регистрация
Хочешь лучшие торренты? Добавь свой email!
Добавить
» » Пятница / Friday (1995) BDRip-AVC | iPhone | D,P1 торрент скачать бесплатно




    Пятница / Friday (1995) BDRip-AVC | iPhone | D,P1 торрент скачать бесплатно

    Опубликовал: Админ | Дата: 27-02-2015, 11:10 | Просмотров: 237



    Пятница / Friday (1995) BDRip-AVC | iPhone | D,P1

    Русское название: Пятница
    Русское название в мировом прокате: Friday
    Создали в: 1995
    Категория жанра: драма, комедия
    Главный режиссер: Ф. Гэри Грей
    Актеры: Айс Кьюб, Крис Такер, Ниа Лонг, Том ’Тайни’ Листер мл., Джон Уизерспун, Анна Мария Хорсфорд, Реджина Кинг, Пола Джей Паркер, Фэйзон Лав, Ди-Джей Пух

    Сюжет фильма:
    Забавная бытовая комедия, действие которой происходит в пятницу в одном из районов Лос-Анджелеса - Южном Централе. Крэйг и Смоки - два приятеля, любящих посидеть вечерком на пороге своего дома, выпить, покурить, поглазеть на улицу.
    Но сегодня у них возникла одна проблема: взяв на продажу порцию травки, они не удержались и раскурили ее сами. Но за удовольствие надо платить - к 10 часам вечера им необходимого раздобыть 200 долларов, чтобы отдать их наркодилеру.



    Снималось в: США
    Киностудия: New Line Cinema, Priority Films (I)
    Время просмотра: 01:37:06
    Перевод текста: Русский дублированный, профессиональный одноголосый закадровый

    Файл
    Кодек для видео: H.264
    Качество фильма: BDRip-AVC 480p
    Информация о видео: 640x480@852x480 (16:9) at 23.976 fps, AVC at 1800 kbps
    Информация о звуке:
    1: АAС 2.0 192 kbps - Русский дублированный
    2: АAС 2.0 129 kbps - Русский профессиональный одноголосый закадровый (Ю.Живов)
    3: АAС 2.0 129 kbps - Английский
    Субтитры: Русские

    MI

    General
    Complete name : C:CREATEx264modoutFriday.1995 (SD).m4v
    Format : MPEG-4
    Codec ID : M4V
    File size : 1.57 GiB
    Duration : 1h 37mn
    Overall bit rate mode : Variable
    Overall bit rate : 2 321 Kbps
    Movie name : Пятница
    Performer : F. Gary Gray
    Genre : Comedy
    Recorded date : UTC 1995-04-26 08:00:00
    Encoded date : UTC 2014-03-13 09:07:34
    Tagged date : UTC 2014-03-13 09:14:54
    Copyright : New Line Cinema, Priority Films (I)
    Cover : Yes
    Comment : a lot can go down between thursday and saturday...
    iTunEXTC : mpaa|R|400|

    sonm : Friday (1995)
    desc : Забавная бытовая комедия, действие которой происходит в пятницу в одном из районов Лос-Анджелеса - Южном Централе. Крэйг и Смоки - два приятеля, любящих посидеть вечерком на пороге своего дома, выпить, покурить, поглазеть на улицу.
    ldes : Забавная бытовая комедия, действие которой происходит в пятницу в одном из районов Лос-Анджелеса - Южном Централе. Крэйг и Смоки - два приятеля, любящих посидеть вечерком на пороге своего дома, выпить, покурить, поглазеть на улицу. Но сегодня у них возникла одна проблема: взяв на продажу порцию травки, они не удержались и раскурили ее сами. Но за удовольствие надо платить - к 10 часам вечера им необходимого раздобыть 200 долларов, чтобы отдать их наркодилеру.
    hdvd : 0
    stik : 9
    cnID : 357411987
    xid : Apple:vendor_id:1995-4809

    Video
    ID : 1
    Format : AVC
    Format/Info : Advanced Video Codec
    Format profile : Baseline@L3.0
    Format settings, CABAC : No
    Format settings, ReFrames : 2 frames
    Codec ID : avc1
    Codec ID/Info : Advanced Video Coding
    Duration : 1h 37mn
    Bit rate : 1 800 Kbps
    Maximum bit rate : 7 230 Kbps
    Width : 640 pixels
    Height : 480 pixels
    Display aspect ratio : 16:9
    Frame rate mode : Constant
    Frame rate : 23.976 fps
    Color space : YUV
    Chroma subsampling : 4:2:0
    Bit depth : 8 bits
    Scan type : Progressive
    Bits/(Pixel*Frame) : 0.244
    Stream size : 1.22 GiB (78%)
    Title : Friday _1995_
    Writing library : x264 core 140 r2377 40 929f149 tMod 8-bit@4:2:0 X86_64
    Encoding settings : cabac=0 / ref=2 / deblock=1:-2:-2 / analyse=0x1:0x131 / me=umh / subme=7 / psy=1 / fade_compensate=1.00 / psy_rd=1.00:0.10 / mixed_ref=1 / me_range=32 / chroma_me=1 / trellis=2 / 8x8dct=0 / cqm=0 / deadzone=21,11 / fast_pskip=0 / chroma_qp_offset=-3 / threads=12 / lookahead_threads=2 / sliced_threads=0 / nr=0 / decimate=0 / interlaced=0 / bluray_compat=0 / constrained_intra=0 / fgo=0 / bframes=0 / weightp=0 / keyint=250 / keyint_min=23 / scenecut=40 / intra_refresh=0 / rc_lookahead=80 / rc=2pass / mbtree=1 / bitrate=1800 / ratetol=1.0 / qcomp=0.60 / qpmin=0:0:0 / qpmax=69:69:69 / qpstep=4 / cplxblur=20.0 / qblur=0.5 / vbv_maxrate=5000 / vbv_bufsize=5000 / nal_hrd=none / filler=0 / ip_ratio=1.35 / aq=4:0.90 / aq-sensitivity=10.00 / aq-factor=1.00:1.00:1.00 / aq2=0 / aq3=0
    Language : English
    Encoded date : UTC 2014-03-13 09:07:34
    Tagged date : UTC 2014-03-13 09:08:37
    Matrix coefficients : BT.709

    Audio #1
    ID : 2
    Format : AAC
    Format/Info : Advanced Audio Codec
    Format profile : LC
    Codec ID : 40
    Duration : 1h 37mn
    Bit rate mode : Variable
    Bit rate : 254 Kbps
    Maximum bit rate : 303 Kbps
    Channel(s) : 2 channels
    Channel positions : Front: L R
    Sampling rate : 48.0 KHz
    Compression mode : Lossy
    Stream size : 176 MiB (11%)
    Title : Dub PTP
    Language : Russian
    Encoded date : UTC 2014-03-13 09:08:15
    Tagged date : UTC 2014-03-13 09:08:37

    Audio #2
    ID : 3
    Format : AAC
    Format/Info : Advanced Audio Codec
    Format profile : LC
    Codec ID : 40
    Duration : 1h 37mn
    Bit rate mode : Variable
    Bit rate : 129 Kbps
    Maximum bit rate : 175 Kbps
    Channel(s) : 2 channels
    Channel positions : Front: L R
    Sampling rate : 48.0 KHz
    Compression mode : Lossy
    Stream size : 89.6 MiB (6%)
    Title : VO Y.Jivov
    Language : Russian
    Encoded date : UTC 2014-03-13 08:53:16
    Tagged date : UTC 2014-03-13 09:08:37

    Audio #3
    ID : 4
    Format : AAC
    Format/Info : Advanced Audio Codec
    Format profile : LC
    Codec ID : 40
    Duration : 1h 37mn
    Bit rate mode : Variable
    Bit rate : 126 Kbps
    Maximum bit rate : 175 Kbps
    Channel(s) : 2 channels
    Channel positions : Front: L R
    Sampling rate : 48.0 KHz
    Compression mode : Lossy
    Stream size : 87.4 MiB (5%)
    Title : Original
    Language : English
    Encoded date : UTC 2014-03-13 09:03:15
    Tagged date : UTC 2014-03-13 09:08:37

    Text #1
    ID : 5
    Format : Timed Text
    Muxing mode : sbtl
    Codec ID : tx3g
    Duration : 1h 32mn
    Bit rate mode : Variable
    Bit rate : 9 bps
    Stream size : 5.87 KiB (0%)
    Title : Subtitle Russian
    Language : Russian
    Encoded date : UTC 2014-03-13 09:08:37
    Tagged date : UTC 2014-03-13 09:08:37

    Text #2
    ID : 6
    Format : Timed Text
    Muxing mode : sbtl
    Codec ID : tx3g
    Duration : 1h 37mn
    Bit rate mode : Variable
    Bit rate : 73 bps
    Stream size : 51.8 KiB (0%)
    Title : Subtitle English
    Language : English
    Encoded date : UTC 2014-03-13 09:08:37
    Tagged date : UTC 2014-03-13 09:08:37

    iTunes tags

    Sort Name: Friday (1995)
    XID: Apple:vendor_id:1995-4809
    Content ID: 357411987
    Copyright: New Line Cinema, Priority Films (I)
    ScreenWriters: Айс Кьюб, Ди-Джей Пух
    Producers: Патриция Шарбоннэ, У.Е. Бэйкер, Айс Кьюб
    Director: Ф. Гэри Грей
    Cast: Айс Кьюб, Крис Такер, Ниа Лонг, Том ’Тайни’ Листер мл., Джон Уизерспун, Анна Мария Хорсфорд, Реджина Кинг, Пола Джей Паркер, Фэйзон Лав, Ди-Джей Пух
    Rating: R
    Long Deion: Забавная бытовая комедия, действие которой происходит в пятницу в одном из районов Лос-Анджелеса - Южном Централе. Крэйг и Смоки - два приятеля, любящих посидеть вечерком на пороге своего дома, выпить, покурить, поглазеть на улицу. Но сегодня у них возникла одна проблема: взяв на продажу порцию травки, они не удержались и раскурили ее сами. Но за удовольствие надо платить - к 10 часам вечера им необходимого раздобыть 200 долларов, чтобы отдать их наркодилеру.
    Deion: Забавная бытовая комедия, действие которой происходит в пятницу в одном из районов Лос-Анджелеса - Южном Централе. Крэйг и Смоки - два приятеля, любящих посидеть вечерком на пороге своего дома, выпить, покурить, поглазеть на улицу.
    Release Date: 1995-04-26T08:00:00Z
    Genre: Comedy
    Artist: F. Gary Gray
    Name: Пятница
    Comments: a lot can go down between thursday and saturday...
    x264

    x264 info: frame I:1563 Avg QP:20.21 size: 40968
    x264 info: frame P:138130 Avg QP:22.58 size: 9024
    x264 info: mb I I16..4: 27.4% 0.0% 72.6%
    x264 info: mb P I16..4: 0.6% 0.0% 1.2% P16..4: 57.2% 18.4% 9.9% 1.2% 0.5% skip:11.0%
    x264 info: coded y,uvDC,uvAC intra: 67.9% 75.5% 56.2% inter: 40.1% 48.6% 23.9%
    x264 info: i16 v,h,dc,p: 60% 12% 8% 20%
    x264 info: i4 v,h,dc,ddl,ddr,vr,hd,vl,hu: 26% 12% 14% 7% 9% 11% 7% 9% 5%
    x264 info: i8c dc,h,v,p: 54% 13% 24% 10%
    x264 info: ref P L0: 75.3% 24.7%
    x264 info: kb/s:1799.53




    Залил: gekka
    Размер скачиваемого торрента: 1.57 GB (1690189267 Bytes)

    Пятница / Friday (1995) BDRip-AVC | iPhone | D,P1 торрент скачать бесплатно
    загрузка...
    Рейтинг →
     (голосов: 1, оценка 3/5, голосовать можно 1 раз )

    Другие торренты по теме:

  • Пятница 13-е / Friday the 13th (2009) BDRip 720p от KinoGadget | Расширенная версия | iPad | D
  • Слава Богу, сегодня пятница / Thank God Its Friday (1978) DVDRip-AVC
  • OST - Пятница, 13-е / Friday the 13th (2009) MP3
  • Пятница 13-е / Friday the 13th (2009) HDRip-AVC | Расширенная Убийственная Версия
  • OST - Чумовая пятница / Freaky Friday (2003) MP3
  • Пятница 13 Часть 2 / Friday the 13th Part 2 (1981) BDRip от HQ-ViDEO
  • Пятница 13 Часть 3 / Friday the 13th Part III (1982) BDRip от HQ-ViDEO
  • Идеальная пятница / Perfect Friday (1970) HDRip от Brazzass


    • Комментарии (0):

      Информация

      Информация

        Посетители, находящиеся в группе Гости, не могут оставлять комментарии в данной новости.

        ↓ Меню



        ↓ Опрос

        А Вы добавили сайт в закладки?
        Да
        Не


        Top 10 за месяц (Фильмы)