.
Авторизация | Регистрация
Хочешь лучшие торренты? Добавь свой email!
Добавить
» » Спасибо за обмен / Thanks for Sharing (2012) HDRip от New-Team | P | лицензия торрент скачать бесплатно




    Спасибо за обмен / Thanks for Sharing (2012) HDRip от New-Team | P | лицензия торрент скачать бесплатно

    Опубликовал: Админ | Дата: 27-02-2015, 11:10 | Просмотров: 3638

    Life is a journey you never have to take alone



    Снималось в: США / Class 5 Films, Olympus Pictures

    Категория жанра: драма, комедия
    Создали в: 2012
    Время просмотра: 01:52:40
    Перевод текста: Профессиональный (многоголосый закадровый)
    Субтитры подготовлены: нет
    Оригинальная аудиодорожка: нет

    Главный режиссер: Стюарт Блумберг / Stuart Blumberg

    Актеры: Марк Руффало, Тим Роббинс, Гвинет Пэлтроу, Джош Гад, Джоэли Ричардсон, Патрик Фьюджит, Кэрол Кейн, Пинк, Эмили Миде, Исайя Уитлок мл....

    Сюжет: Три сексоголика решили бороться с пагубной зависимостью. С этой целью они отправляются в специальную клинику, где в рамках лечения должны пройти 12 этапов реабилитационного процесса. Дело это, как оказывается, непростое, но чего не сделаешь ради того, чтобы оправиться от сексуальной зависимости и наладить конструктивные отношения с окружающими, пожалуй, в первый раз в жизни…



    Качество фильма: HDRip / BDRip 720p
    Тип видео: AVI

    Информация о видео: 720x400 (16:9), 23.976 fps, XviD ~ 1462 kbps avg, 0.212 bit/pixel
    Информация о звуке: 48 kHz, Dolby AC3, 6 ch, 384 kbps, русский

    Раздача от:
    MediaInfo

    Общее
    Полное имя : Spasibo.za.obmen.2012.P.HDRip_New-team_by_avproh.avi
    Формат : AVI
    Формат/Информация : Audio Video Interleave
    Размер файла : 1,46 Гбайт
    Продолжительность : 1 ч. 52 м.
    Общий поток : 1855 Кбит/сек
    Программа кодирования : VirtualDubModRus 1.5.10.2 (build 2542/release)
    Библиотека кодирования : VirtualDubMod build 2542/release

    Видео
    Идентификатор : 0
    Формат : MPEG-4 Visual
    Профиль формата : Advanced Simple@L5
    Параметр BVOP формата : 1
    Параметр QPel формата : Нет
    Параметр GMC формата : Без точки перехода
    Параметр матрицы формата : Выборочная
    Идентификатор кодека : XVID
    Идентификатор кодека/Подсказка : XviD
    Продолжительность : 1 ч. 52 м.
    Битрейт : 1462 Кбит/сек
    Ширина : 720 пикселей
    Высота : 400 пикселей
    Соотношение сторон : 16:9
    Частота кадров : 23,976 кадра/сек
    Цветовое пространство : YUV
    Субдискретизация насыщенности : 4:2:0
    Битовая глубина : 8 бит
    Тип развёртки : Прогрессивная
    Метод сжатия : С потерями
    Бит/(Пиксели*Кадры) : 0.212
    Размер потока : 1,15 Гбайт (79%)
    Библиотека кодирования : XviD 73

    Аудио
    Идентификатор : 1
    Формат : AC-3
    Формат/Информация : Audio Coding 3
    Расширение режима : CM (complete main)
    Параметр Endianness формата : Big
    Идентификатор кодека : 2000
    Продолжительность : 1 ч. 52 м.
    Вид битрейта : Постоянный
    Битрейт : 384 Кбит/сек
    Каналы : 6 каналов
    Расположение каналов : Front: L C R, Side: L R, LFE
    Частота : 48,0 КГц
    Битовая глубина : 16 бит
    Метод сжатия : С потерями
    Размер потока : 309 Мбайт (21%)
    Выравнивание : Разделение по промежуткам
    Продолжительность промежутка : 42 мс. (1,00 видеокадр)
    Время предзагрузки промежутка : 500 мс.

    Скриншоты для ознакомления:



    Залил: avproh
    Размер скачиваемого торрента: 1.46 GB (1567727616 Bytes)

    Спасибо за обмен / Thanks for Sharing (2012) HDRip от New-Team | P | лицензия торрент скачать бесплатно
    загрузка...
    Рейтинг →
     (голосов: 1, оценка 4/5, голосовать можно 1 раз )

    Другие торренты по теме:

  • Спасибо за обмен / Thanks for Sharing (2012) BDRip 1080p | P
  • Спасибо за обмен / Thanks for Sharing (2012) HDRip-AVC от ExKinoRay | P
  • Спасибо за обмен / Thanks for Sharing (2012) BDRip 720p | P
  • Спасибо за обмен / Thanks for Sharing (2012) HDRip | P
  • Спасибо за обмен / Thanks for Sharing (2012) BDRip-AVC от HELLYWOOD | P скачать через торрент бесплатно
  • Спасибо за обмен / Thanks for Sharing (2012) HDRip-AVC от New-Team | P | лицензия скачать через торрент бесплатно
  • Спасибо за обмен / Thanks for Sharing (2012) DVD5 R5 от New-Team | P | лицензия
  • Спасибо за обмен / Thanks for Sharing (2012) BDRip от HQCLUB | Лицензия скачать через торрент бесплатно


    • Комментарии (0):

      Информация

      Информация

        Посетители, находящиеся в группе Гости, не могут оставлять комментарии в данной новости.

        ↓ Меню



        ↓ Опрос

        А Вы добавили сайт в закладки?
        Да
        Не


        Top 10 за месяц (Фильмы)