.
Авторизация | Регистрация
Хочешь лучшие торренты? Добавь свой email!
Добавить
» » Рыцари королевства Крутизны / Knights of Badassdom (2013) WEB-DLRip-AVC | L торрент скачать бесплатно




    Рыцари королевства Крутизны / Knights of Badassdom (2013) WEB-DLRip-AVC | L торрент скачать бесплатно

    Опубликовал: Админ | Дата: 27-02-2015, 11:10 | Просмотров: 207



    Детально о кино
    Русское название: Рыцари королевства Крутизны
    Русское название в мировом прокате: Knights of Badassdom
    Создали в: 2013
    Категория жанра: комедия, фэнтези, ужасы
    Главный режиссер: Джо Линч
    Актеры: Райан Квантен, Стив Зан, Питер Динклэйдж, Саммер Глау, Маргарита Левиева, Джошуа Малина, Дэнни Пуди, У. Эрл Браун

    Сюжет фильма: Назад в средневековье…
    Большая группа увлеченных костюмированных ролевиков, разодетая в рыцарей, эльфов и других персонажей, отключает свои мобильники и направляется в леса Нью-Джерси в Сообщество рыцарей Badassdom, где они собираются воспроизвести сценарий подземелий и драконов (dungeons and dragons) прямиком из мифического средневековья.




    Снималось в: США
    Киностудия: IndieVest Pictures, North by Northwest Entertainment
    Время просмотра: 01:25:43
    Перевод текста: Любительское (многоголосое) (ViruseProject)

    Файл
    Кодек для видео: h.264
    Качество фильма: WEB-DLRip-AVC
    Информация о видео: AVC, 1024 x 428, ~ 1813 kb/s
    Информация о звуке #1: Русский: AC3, 384 kb/s (6 ch)
    Информация о звуке #2: Английский: AC3, 384 kb/s (6 ch)
    Субтитры: Русский (forced) and (full)



    Семпл

    Скриншоты для ознакомления
    MI
    Общее
    Уникальный идентификатор : 168348648403719580577546155723716462494 (0x7EA6C532C2870C1E037BA147C20E879E)
    Полное имя : G:Рыцари королевства Крутизны Knights of Badassdom (2013) WEB-DLRip-AVCKnights.Of.Badassdom.2013.WEB.DLRip-AVC..mkv
    Формат : Matroska
    Версия формата : Version 2
    Размер файла : 1,58 Гбайт
    Продолжительность : 1 ч. 25 м.
    Режим общего битрейта : Переменный
    Общий поток : 2634 Кбит/сек
    Программа кодирования : Lavf51.12.1
    Библиотека кодирования : Lavf51.12.1

    Видео
    Идентификатор : 1
    Формат : AVC
    Формат/Информация : Advanced Video Codec
    Профиль формата : Baseline@L3.1
    Параметр CABAC формата : Нет
    Параметр ReFrames формата : 1 кадр
    Параметр GOP формата : M=1, N=12
    Идентификатор кодека : V_MPEG4/ISO/AVC
    Продолжительность : 1 ч. 25 м.
    Вид битрейта : Переменный
    Битрейт : 1813 Кбит/сек
    Максимальный битрейт : 2790 Кбит/сек
    Ширина : 1024 пикселя
    Высота : 428 пикселей
    Соотношение сторон : 2,40:1
    Соотношение сторон в оригинале : 2,40:1
    Режим частоты кадров : Постоянный
    Частота кадров : 23,976 кадра/сек
    Частота кадров в оригинале : 24,000 кадра/сек
    Цветовое пространство : YUV
    Субдискретизация насыщенности : 4:2:0
    Битовая глубина : 8 бит
    Тип развёртки : Прогрессивная
    Бит/(Пиксели*Кадры) : 0.173
    Размер потока : 1,09 Гбайт (69%)
    Язык : English
    Default : Да
    Forced : Нет

    Аудио #1
    Идентификатор : 2
    Формат : AC-3
    Формат/Информация : Audio Coding 3
    Расширение режима : CM (complete main)
    Параметр Endianness формата : Big
    Идентификатор кодека : A_AC3
    Продолжительность : 1 ч. 25 м.
    Вид битрейта : Постоянный
    Битрейт : 384 Кбит/сек
    Каналы : 6 каналов
    Расположение каналов : Front: L C R, Side: L R, LFE
    Частота : 48,0 КГц
    Битовая глубина : 16 бит
    Метод сжатия : С потерями
    Размер потока : 235 Мбайт (15%)
    Язык : Russian
    Default : Да
    Forced : Нет

    Аудио #2
    Идентификатор : 4
    Формат : AC-3
    Формат/Информация : Audio Coding 3
    Расширение режима : CM (complete main)
    Параметр Endianness формата : Big
    Идентификатор кодека : A_AC3
    Продолжительность : 1 ч. 25 м.
    Вид битрейта : Постоянный
    Битрейт : 384 Кбит/сек
    Каналы : 6 каналов
    Расположение каналов : Front: L C R, Side: L R, LFE
    Частота : 48,0 КГц
    Битовая глубина : 16 бит
    Метод сжатия : С потерями
    Размер потока : 235 Мбайт (15%)
    Язык : English
    Default : Да
    Forced : Нет

    Текст
    Идентификатор : 3
    Формат : UTF-8
    Идентификатор кодека : S_TEXT/UTF8
    Идентификатор кодека/Информация : UTF-8 Plain Text
    Язык : Russian
    Default : Да
    Forced : Нет

    Размер скачиваемого торрента: 1.58 GB (1693229266 Bytes)

    Рыцари королевства Крутизны / Knights of Badassdom (2013) WEB-DLRip-AVC | L торрент скачать бесплатно
    загрузка...
    Рейтинг →
     (голосов: 1, оценка 4/5, голосовать можно 1 раз )

    Другие торренты по теме:

  • Рыцари королевства Крутизны / Knights of Badassdom (2013) WEB-DLRip
  • Рыцари королевства Крутизны / Knights of Badassdom (2013) WEB-DL 720p
  • Рыцари королевства Крутизны / Knights of Badassdom (2013) WebDLRip от Torrange | L скачать через торрент бесплатно
  • Рыцари королевства Крутизны / Knights of Badassdom (2013) BDRip от Rulya74 | ViruseProject
  • Рыцари королевства Крутизны / Knights of Badassdom (2013) BDRip 720p от Leonardo and Scarabey | ViruseProject скачать через торрент бесплатно
  • Рыцари королевства Крутизны / Knights of Badassdom


    • Комментарии (0):

      Информация

      Информация

        Посетители, находящиеся в группе Гости, не могут оставлять комментарии в данной новости.

        ↓ Меню



        ↓ Опрос

        А Вы добавили сайт в закладки?
        Да
        Не


        Top 10 за месяц (Фильмы)