.
Авторизация | Регистрация
Хочешь лучшие торренты? Добавь свой email!
Добавить
» » Воскресенье, проклятое воскресенье / Sunday Bloody Sunday (1971) BDRip by msltel | P торрент скачать бесплатно




    Воскресенье, проклятое воскресенье / Sunday Bloody Sunday (1971) BDRip by msltel | P торрент скачать бесплатно

    Опубликовал: Админ | Дата: 27-02-2015, 11:10 | Просмотров: 349



    Русское название: Воскресенье, проклятое воскресенье
    Русское название в мировом прокате: Sunday Bloody Sunday
    Создали в: 1971
    Категория жанра: Драма
    Снималось в: Великобритания, Vectia
    Главный режиссер: Джон Шлезингер
    Актеры: Питер Финч, Гленда Джексон, Мюррэй Хэд, Пегги Эшкрофт, Тони Бриттон, Морис Денэм, Бесси Лав, Вивиан Пиклз, Фрэнк Уиндзор, Томас Бэптист, Ричард Пирсон, Джун Браун, Ханна Норберт, Харольд Голдблатт, Мари Бурк, Кэролайн Блэкистон, Питер Холлидэй, Джон Финч, Дэниэл Дэй-Льюис

    Сюжет фильма: Апатию, охватившую английское общество в начале 70-х годов, Джон Шлезингер тонко отразил в этом фильме, который можно воспринимать как метафорическую картину горького пробуждения после бума 60-х, когда англичане вдруг увидели, что живут в захудалой стране, где люди согласны даже на половину куска. Фильм повествует об одной неделе из жизни респектабельного пожилого доктора и интеллигентной женщины средних лет, которые не только пользуются одной телефонной службой, но и, как выясняется, делят одного любовника...

    Качество фильма: BDRip
    Размер скачиваемого торрента: 1.77 ГБ
    Время просмотра: 01:50:26

    Информация о видео: XviD, 1900 Кбит/с, 672x400
    Информация о звуке: русский, 48 kHz, AC3, 2 ch, 192 kbps avg, Профессиональный многоголосый

    Внешние файлы
    Информация о звуке: английский, 48 kHz, AC3, 1 ch, 192 kbps avg, Оригинал
    Субтитры: английские

    Исходник: sargatanaz (Кинозал)

    Сравнение с исходником



    Награды
    Оскар, 1972 год
    Номинации (4):
    Лучшая мужская роль (Питер Финч)
    Лучшая женская роль (Гленда Джексон)
    Лучший режиссер (Джон Шлезингер)
    Лучший адаптированный сценарий по мотивам ранее не опубликованного материала или документальных фактов

    Золотой глобус, 1972 год
    Победитель (1):
    Лучший иностранный фильм на английском языке

    Номинации (1):
    Лучшая мужская роль (драма) (Питер Финч)

    Британская академия, 1972 год
    Победитель (5):
    Лучший фильм
    Лучшая мужская роль (Питер Финч)
    Лучшая женская роль (Гленда Джексон)
    Лучший режиссер (Джон Шлезингер)
    Лучший монтаж

    Номинации (3):
    Лучший сценарий
    Лучшая работа оператора
    Лучший саундтрек
    MediaInfo
    Общее
    Полное имя : D:VideoVoskresen;e, prokljatoe voskresen;e.1971.XviD.BDRipVoskresen;e, prokljatoe voskresen;e.1971.eng.srt
    Формат : SubRip
    Размер файла : 88,1 Кбайт

    Текст
    Формат : SubRip
    Метод сжатия : Без потерь

    Общее
    Полное имя : D:VideoVoskresen;e, prokljatoe voskresen;e.1971.XviD.BDRipVoskresen;e, prokljatoe voskresen;e.1971.Original.eng.ac3
    Формат : AC-3
    Формат/Информация : Audio Coding 3
    Размер файла : 152 Мбайт
    Продолжительность : 1 ч. 50 м.
    Режим общего битрейта : Постоянный
    Общий поток : 192 Кбит/сек

    Аудио
    Формат : AC-3
    Формат/Информация : Audio Coding 3
    Расширение режима : CM (complete main)
    Параметр Endianness формата : Big
    Продолжительность : 1 ч. 50 м.
    Вид битрейта : Постоянный
    Битрейт : 192 Кбит/сек
    Каналы : 1 канал
    Расположение каналов : Front: C
    Частота : 48,0 КГц
    Битовая глубина : 16 бит
    Метод сжатия : С потерями
    Размер потока : 152 Мбайт (100%)

    Общее
    Полное имя : D:VideoVoskresen;e, prokljatoe voskresen;e.1971.XviD.BDRipVoskresen;e, prokljatoe voskresen;e.1971.XviD.BDRip.avi
    Формат : AVI
    Формат/Информация : Audio Video Interleave
    Размер файла : 1,62 Гбайт
    Продолжительность : 1 ч. 50 м.
    Общий поток : 2102 Кбит/сек
    Программа кодирования : VirtualDubMod 1.5.10.2 (build 2540/release)
    Библиотека кодирования : VirtualDubMod build 2540/release

    Видео
    Идентификатор : 0
    Формат : MPEG-4 Visual
    Профиль формата : Advanced Simple@L5
    Параметр BVOP формата : 1
    Параметр QPel формата : Нет
    Параметр GMC формата : Без точки перехода
    Параметр матрицы формата : Default (H.263)
    Режим смешивания : Сжатый битовый поток
    Идентификатор кодека : XVID
    Идентификатор кодека/Подсказка : XviD
    Продолжительность : 1 ч. 50 м.
    Битрейт : 1900 Кбит/сек
    Ширина : 672 пикселя
    Высота : 400 пикселей
    Соотношение сторон : 1,680
    Частота кадров : 23,976 кадра/сек
    Цветовое пространство : YUV
    Субдискретизация насыщенности : 4:2:0
    Битовая глубина : 8 бит
    Тип развёртки : Прогрессивная
    Метод сжатия : С потерями
    Бит/(Пиксели*Кадры) : 0.295
    Размер потока : 1,47 Гбайт (90%)
    Библиотека кодирования : XviD 1.2.1 (UTC 2008-12-04)

    Аудио
    Идентификатор : 1
    Формат : AC-3
    Формат/Информация : Audio Coding 3
    Расширение режима : CM (complete main)
    Параметр Endianness формата : Big
    Идентификатор кодека : 2000
    Продолжительность : 1 ч. 50 м.
    Вид битрейта : Постоянный
    Битрейт : 192 Кбит/сек
    Каналы : 2 канала
    Расположение каналов : Front: L R
    Частота : 48,0 КГц
    Битовая глубина : 16 бит
    Метод сжатия : С потерями
    Размер потока : 152 Мбайт (9%)
    Выравнивание : Разделение по промежуткам
    Продолжительность промежутка : 42 мс. (1,00 видеокадр)
    Время предзагрузки промежутка : 500 мс.
    Скриншоты для ознакомления



    Залил: msltel
    Размер скачиваемого торрента: 1.77 GB (1899903044 Bytes)

    Воскресенье, проклятое воскресенье / Sunday Bloody Sunday (1971) BDRip by msltel | P торрент скачать бесплатно
    загрузка...
    Рейтинг →
     (голосов: 1, оценка 4/5, голосовать можно 1 раз )

    Другие торренты по теме:

  • Воскресенье, проклятое воскресенье / Sunday Bloody Sunday (1971) BDRip 720p by msltel | P скачать через торрент бесплатно
  • Воскресенье, проклятое воскресенье / Sunday Bloody Sunday (1971) BDRip 1080p by msltel | P скачать через торрент бесплатно


    • Комментарии (0):

      Информация

      Информация

        Посетители, находящиеся в группе Гости, не могут оставлять комментарии в данной новости.

        ↓ Меню



        ↓ Опрос

        А Вы добавили сайт в закладки?
        Да
        Не


        Top 10 за месяц (Фильмы)