.
Авторизация | Регистрация
Хочешь лучшие торренты? Добавь свой email!
Добавить
» » Внутреннее пространство / Innerspace (1987) HDTVRip от New-Team скачать через торрент бесплатно




    Внутреннее пространство / Innerspace (1987) HDTVRip от New-Team скачать через торрент бесплатно

    Опубликовал: Админ | Дата: 27-02-2015, 11:10 | Просмотров: 311


    Снималось в: США
    Создали в: Amblin Entertainment, Guber-Peters Company, Warner Bros. Pictures Co.

    Категория жанра: фантастика, комедия, приключения
    Создали в: 1987
    Время просмотра: 01:54:44

    Перевод текста: Профессиональный (полное дублирование)
    Оригинальная аудиодорожка: английский
    Субтитры подготовлены: нет

    Главный режиссер: Джо Данте / Joe Dante

    Актеры:
    Деннис Куэйд, Мартин Шорт, Мег Райан, Кевин МакКарти, Фиона Льюис, Вернон Уэллс, Роберт Пикардо, Уэнди Шаал, Гарольд Сильвестр, Уильям Шэллерт...

    Сюжет:
    Американский пилот лейтенант Так Пендлтон принимает участие в эксперименте, в процессе которого он должен быть очень сильно уменьшен в размерах и в летательном аппарате, похожем на подлодку обследовать внутреннее пространство кролика. Но технотеррористы рушат все планы и похищают шприц, в котором находился миниатюризированый Так.
    По ошибке содержимое шприца попадает в ипохондрика Джека Паттера. Теперь террористы начинают охотиться за ничего не подозревающим Джеком. Единственная, кто ему может помочь, это девушка Така — журналистка Лидия…




    Исходник: HDTVRip 1080p
    Тип релиза: HDTVRip
    Контейнер: AVI

    Информация о видео: 720x400 (16:9), 25 fps, XviD ~ 1424 kbps avg, 0.198 bit/pixel
    Информация о звуке: 48 kHz, Dolby Digital AC3 2.0, 192 kbps DUB
    Информация о звуке: 48 kHz, Dolby Digital AC3 2.0, 192 kbps Английский

    Раздача от:
    MediaInfo

    Общее
    Полное имя : Vnutrennee.prostranstvo.1987.HDTVRip_New-team_by_AVP_Studio.avi
    Формат : AVI
    Формат/Информация : Audio Video Interleave
    Размер файла : 1,46 Гбайт
    Продолжительность : 1 ч. 54 м.
    Общий поток : 1822 Кбит/сек
    Программа кодирования : VirtualDubModRus 1.5.10.2 (build 2542/release)
    Библиотека кодирования : VirtualDubMod build 2542/release

    Видео
    Идентификатор : 0
    Формат : MPEG-4 Visual
    Профиль формата : Advanced Simple@L5
    Параметр BVOP формата : 1
    Параметр QPel формата : Нет
    Параметр GMC формата : Без точки перехода
    Параметр матрицы формата : Выборочная
    Идентификатор кодека : XVID
    Идентификатор кодека/Подсказка : XviD
    Продолжительность : 1 ч. 54 м.
    Битрейт : 1424 Кбит/сек
    Ширина : 720 пикселей
    Высота : 400 пикселей
    Соотношение сторон : 16:9
    Частота кадров : 25,000 кадров/сек
    Цветовое пространство : YUV
    Субдискретизация насыщенности : 4:2:0
    Битовая глубина : 8 бит
    Тип развёртки : Прогрессивная
    Метод сжатия : С потерями
    Бит/(Пиксели*Кадры) : 0.198
    Размер потока : 1,14 Гбайт (78%)
    Библиотека кодирования : XviD 73

    Аудио #1
    Идентификатор : 1
    Формат : AC-3
    Формат/Информация : Audio Coding 3
    Расширение режима : CM (complete main)
    Параметр Endianness формата : Big
    Идентификатор кодека : 2000
    Продолжительность : 1 ч. 54 м.
    Вид битрейта : Постоянный
    Битрейт : 192 Кбит/сек
    Каналы : 2 канала
    Расположение каналов : Front: L R
    Частота : 48,0 КГц
    Битовая глубина : 16 бит
    Метод сжатия : С потерями
    Размер потока : 158 Мбайт (11%)
    Выравнивание : Разделение по промежуткам
    Продолжительность промежутка : 40 мс. (1,00 видеокадр)
    Время предзагрузки промежутка : 500 мс.

    Аудио #2
    Идентификатор : 2
    Формат : AC-3
    Формат/Информация : Audio Coding 3
    Расширение режима : CM (complete main)
    Параметр Endianness формата : Big
    Идентификатор кодека : 2000
    Продолжительность : 1 ч. 54 м.
    Вид битрейта : Постоянный
    Битрейт : 192 Кбит/сек
    Каналы : 2 канала
    Расположение каналов : Front: L R
    Частота : 48,0 КГц
    Битовая глубина : 16 бит
    Метод сжатия : С потерями
    Размер потока : 158 Мбайт (11%)
    Выравнивание : Разделение по промежуткам
    Продолжительность промежутка : 40 мс. (1,00 видеокадр)
    Время предзагрузки промежутка : 500 мс

    Скриншоты для ознакомления



    Залил: AVPStudio
    Размер скачиваемого торрента: 1.46 GB (1567969280 Bytes)

    Внутреннее пространство / Innerspace (1987) HDTVRip от New-Team скачать через торрент бесплатно
    загрузка...
    Рейтинг →
     (голосов: 1, оценка 3/5, голосовать можно 1 раз )

    Другие торренты по теме:

  • Внутреннее пространство / The Inner Room (2011) DVDRip от Хихидок
  • Внутреннее пространство / Innerspace (1987) HDTVRip-AVC от New-Team скачать через торрент бесплатно
  • Внутреннее пространство / Innerspace (1987) HDRip-AVC | D, P


    • Комментарии (0):

      Информация

      Информация

        Посетители, находящиеся в группе Гости, не могут оставлять комментарии в данной новости.

        ↓ Меню



        ↓ Опрос

        А Вы добавили сайт в закладки?
        Да
        Не


        Top 10 за месяц (Фильмы)